Torrent Search | Torrent Meta Search | Widgets

Le ali della Libertà

       
1.68 Gb
found 2 years ago
▲ seeders: 17 ▼ leechers:5
your vote:
real:
fake:
Direct Download
THANK YOU
download torrent
  Direct Downloadsponsored

Le ali della Libertà torrent

Information about the torrent Le ali della Libertà. Seeders, leechers and torrent status is updated several times per day.

If you want to download the video torrent Le ali della Libertà you will need a torrent client.

Torrent Metasearch.

Torrent verified by kat.ph.

tracker
seeders
leechers
↓ torrent client compatible list

↑ hide torrent client compatible list

Help torrentproject.com to stay alive .
Add links of torrentproject.com in your favorite forum, blog, youtube, facebook, twitter etc.
reviews
140
torrent contents

Le ali della Libertà.avi torrent

Le ali della Libertà.avi1.68 Gb torrent search

Sample info:
Duration: 04:32:43.04, start: 0.000000, bitrate: 881 kb/s
Stream #0.0: Video: mpeg4, yuv420p, 1024x576 [PAR 1:1 DAR 16:9], 25 tbr, 25 tbn, 25 tbc
Stream #0.1: Audio: mp3, 44100 Hz, 2 channels, s16, 96 kb/s
screenshots
Le ali della Libertà torrent screenshot 00719335A0471185C46867B69AF6E083A3217FE5 Le ali della Libertà torrent screenshot 00719335a0471185c46867b69af6e083a3217fe5 torrent Le ali della Libertà
Le ali della Libertà.avi images are auto generated please report any inapropriate images
 

related search cloud

 libert  della