Torrent Search | Torrent Meta Search | Widgets

Ночные забавы

4.12 Gb
found 2 years ago
▲ seeders: 1 ▼ leechers:0
your vote:
real:
fake:
Direct Download
THANK YOU
download torrent
  Direct Downloadsponsored

Ночные забавы torrent

Information about the torrent Ночные забавы. Seeders, leechers and torrent status is updated everyday.

If you want to download the dvd torrent Ночные забавы you will need a torrent client.

Torrent Metasearch.

No trackers with seeders or leechers have been found, this doesn't mean that the torrent Ночные забавы is dead
Help torrentproject.com to stay alive .
Add links of torrentproject.com in your favorite forum, blog, youtube, facebook, twitter etc.
reviews
140
torrent contents

Ночные забавы torrent

Ночные забавы
 VIDEO_TS
VIDEO_TS.BUP12 Kb torrent search
VIDEO_TS.IFO12 Kb torrent search
VIDEO_TS.VOB124 Kb torrent search
VTS_01_0.BUP78 Kb torrent search
VTS_01_0.IFO78 Kb torrent search
VTS_01_0.VOB128 Kb torrent search
VTS_01_1.VOB1023.57 Mb torrent search
VTS_01_2.VOB1023.91 Mb torrent search
VTS_01_3.VOB1023.89 Mb torrent search
VTS_01_4.VOB1023.89 Mb torrent search
VTS_01_5.VOB126.03 Mb torrent search

Sample info:
Duration: 00:32:09.82, start: 1892.639267, bitrate: 4450 kb/s
Stream #0.0[0x1e0]: Video: mpeg2video, yuv420p, 720x576 [PAR 16:15 DAR 4:3], 9500 kb/s, 25.00 tb(r)
Stream #0.1[0x80]: Audio: ac3, 48000 Hz, stereo, 192 kb/s
screenshots
Ночные забавы torrent screenshot 009E8E7974BAC91B2484C341D374E187F3435D63 Ночные забавы torrent screenshot 009e8e7974bac91b2484c341d374e187f3435d63 torrent Ночные забавы
Ночные забавы images are auto generated please report any inapropriate images
 

related search cloud

 video