Torrent Search | Torrent Meta Search | Widgets

Brasileirinhas Gaucha Nota 10

       
1.37 Gb
found 2 years ago
▲ seeders: 6 ▼ leechers:4
your vote:
real:
fake:
Direct Download
THANK YOU
download torrent
  Direct Downloadsponsored

Brasileirinhas Gaucha Nota 10 torrent

Information about the torrent Brasileirinhas Gaucha Nota 10. Seeders, leechers and torrent status is updated everyday.

If you want to download the video torrent Brasileirinhas Gaucha Nota 10 you will need a torrent client.

Torrent Metasearch.

.

tracker
seeders
leechers
↓ torrent client compatible list

↑ hide torrent client compatible list

Help torrentproject.com to stay alive .
Add links of torrentproject.com in your favorite forum, blog, youtube, facebook, twitter etc.
reviews
140
torrent contents

Brasileirinhas--Gaucha Nota 10.avi torrent

Brasileirinhas--Gaucha Nota 10.avi1.37 Gb torrent search

Sample info:
Duration: 02:14:31.80, start: 0.000000, bitrate: 1453 kb/s
Stream #0.0: Video: mpeg4, yuv420p, 624x352 [PAR 1:1 DAR 39:22], 29.97 tbr, 29.97 tbn, 29.98 tbc
Stream #0.1: Audio: mp3, 48000 Hz, 2 channels, s16, 102 kb/s
screenshots
Brasileirinhas Gaucha Nota 10 torrent screenshot 014F3BA758E9FAFEA4ED4C8AAD19F161DE45A979 Brasileirinhas Gaucha Nota 10 torrent screenshot 014f3ba758e9fafea4ed4c8aad19f161de45a979 torrent Brasileirinhas Gaucha Nota 10
Brasileirinhas--Gaucha Nota 10.avi images are auto generated please report any inapropriate images
 

related search cloud

 nota  gaucha  brasileirinhas

Torrent Anonymous Download