Torrent Search | Torrent Meta Search | Widgets

Rebecca Linares

100.74 Gb
found 2 years ago
▲ seeders: 0 ▼ leechers:2
your vote:
real:
fake:
Direct Download
THANK YOU
download torrent
  Direct Downloadsponsored

Rebecca Linares torrent

Information about the torrent Rebecca Linares. Seeders, leechers and torrent status is updated several times per day.

If you want to download the interracial torrent Rebecca Linares you will need a torrent client.

Torrent Metasearch.

tracker
seeders
leechers
↓ torrent client compatible list

↑ hide torrent client compatible list

Help torrentproject.com to stay alive .
Add links of torrentproject.com in your favorite forum, blog, youtube, facebook, twitter etc.
reviews
anonymous 11 Apr 2014, 10:04:42
nLarge And In Charge
140
torrent contents

Rebecca Linares torrent

Rebecca Linares
 Clips
[Solo]Rebeca Linares - InTheCrack_2.avi712.85 Mb torrent search
[Lesbo]Rebeca Linares - Surprise for beloved(RealityGang.com).avi668.6 Mb torrent search
[Solo]Rebeca Linares - InTheCrack_1.avi665.53 Mb torrent search
[Group]Rebeca Linares - How You Like That Ass!(BangBros).wmv606.42 Mb torrent search
[1 on 1]Rebeca Linares - Big Butt Cake(Brazzers).wmv606.33 Mb torrent search
[1 on 1]Rebeca Linares - PornstarCream.wmv554.24 Mb torrent search
[Group]Rebeca Linares - Tierra Prohibida(Brazzers).wmv542.21 Mb torrent search
[1 on 1]Rebeca Linares - Resisting Anal Arrest Pt 1(Brazzers).wmv526.74 Mb torrent search
[1 on 1]Rebeca Linares - HDPorn_1.avi520.23 Mb torrent search
[Interracial - 1on1]Rebeca Linares - Large And In Charge!!(BangBros).wmv513.12 Mb torrent search
[1 on 1]Rebeca Linares - ED Powers.wmv498.81 Mb torrent search
[Group]Rebeca Linares - A Day In The Sun(BangBros).wmv458.1 Mb torrent search
[1 on 1]Rebeca Linares - Porn.com.avi457.82 Mb torrent search
[1 on 1]Rebeca Linares - Spanish Ass Invasion!(Brazzers).wmv457.73 Mb torrent search
[1 on 1]Rebeca Linares - Rebecca's Anal Suprise(OyeLoca.com).wmv446.06 Mb torrent search
[Interracial - 1on1]Rebeca Linares - Say Her Name!(Brazzers).wmv441.93 Mb torrent search
[1 on 1]Rebeca Linares - Spaniard Beauty!(BangBros).wmv425.85 Mb torrent search
[Interracial - 1on1]Rebeca Linares - Naughty Office(2008)(NaughtyAmerica).wmv419.61 Mb torrent search
[1 on 1]Rebeca Linares - HDPorn_2.avi418.26 Mb torrent search
[Group]Rebeca Linares - Can You Get Hard(RealityKings).wmv411.75 Mb torrent search

Sample info:
Duration: 00:42:35.17, start: 0.000000, bitrate: 2340 kb/s
Stream #0.0: Video: msmpeg4, yuv420p, 640x360, 29 tbr, 29 tbn, 29 tbc
Stream #0.1: Audio: mp3, 44100 Hz, stereo, s16, 128 kb/s
screenshots
Rebecca Linares torrent screenshot 018B7EF86B73D17C0C0E3771D657F9B193C58865 Rebecca Linares torrent screenshot 018b7ef86b73d17c0c0e3771d657f9b193c58865 torrent Rebecca Linares
Rebecca Linares images are auto generated please report any inapropriate images
 

related search cloud

 linares  rebeca  brazzers  bangbros  interracial  group  hdporn  rebecca  anal  inthecrack