Torrent Search | Torrent Meta Search | Widgets

The Ring (2002) DVDRip XviD AC3 VLiS

       
1.36 Gb
found 2 years ago
▲ seeders: 10 ▼ leechers:1
your vote:
real:
fake:
Direct Download
THANK YOU
download torrent
  Direct Downloadsponsored

The Ring (2002) DVDRip XviD AC3 VLiS torrent

Information about the torrent The Ring (2002) DVDRip XviD AC3 VLiS. Seeders, leechers and torrent status is updated everyday.

If you want to download the dvdrip torrent The Ring (2002) DVDRip XviD AC3 VLiS you will need a torrent client.

Torrent Metasearch.

Torrent verified by kat.ph.

tracker
seeders
leechers
↓ torrent client compatible list

↑ hide torrent client compatible list

Help torrentproject.com to stay alive .
Add links of torrentproject.com in your favorite forum, blog, youtube, facebook, twitter etc.
reviews
140
torrent contents

The Ring.2002.DVDRip.XviD.AC3-VLiS torrent

The Ring.2002.DVDRip.XviD.AC3-VLiS
The Ring.2002.DVDRip.XviD.AC3-VLiS.avi1.36 Gb torrent search

Sample info:
Duration: 01:50:32.28, start: 0.000000, bitrate: 1763 kb/s
Stream #0.0: Video: mpeg4, yuv420p, 720x384 [PAR 1:1 DAR 15:8], 25.00 tb(r)
Stream #0.1: Audio: ac3, 48000 Hz, 5:1, 384 kb/s
screenshots
The Ring 2002 DVDRip torrent screenshot 019AFF29A8FF886BDC3A928FA258EF7D0055BD38 The Ring 2002 DVDRip  torrent screenshot 019aff29a8ff886bdc3a928fa258ef7d0055bd38 torrent The Ring 2002 DVDRip
The Ring.2002.DVDRip.XviD.AC3-VLiS images are auto generated please report any inapropriate images
 

related search cloud

 vlis  xvid  dvdrip  ring