Torrent Search | Torrent Meta Search | Widgets

Sasuke Jam 18 Yukina Mori Yuri Aine Yuu Sakura SSKJ018 DVDRip XviD JAV Uncensored JapanX

1.36 Gb
found 2 years ago
▲ seeders: 1 ▼ leechers:1
your vote:
real:
fake:
Direct Download
THANK YOU
download torrent
  Direct Downloadsponsored

Sasuke Jam 18 Yukina Mori Yuri Aine Yuu Sakura SSKJ018 DVDRip XviD JAV Uncensored JapanX torrent

Information about the torrent Sasuke Jam 18 Yukina Mori Yuri Aine Yuu Sakura SSKJ018 DVDRip XviD JAV Uncensored JapanX. Seeders, leechers and torrent status is updated several times per day.

If you want to download the dvdrip torrent Sasuke Jam 18 Yukina Mori Yuri Aine Yuu Sakura SSKJ018 DVDRip XviD JAV Uncensored JapanX you will need a torrent client.

Torrent Metasearch.

tracker
seeders
leechers
↓ torrent client compatible list

↑ hide torrent client compatible list

Help torrentproject.com to stay alive .
Add links of torrentproject.com in your favorite forum, blog, youtube, facebook, twitter etc.
reviews
140
torrent contents

Sasuke.Jam.18.Yukina.Mori.Yuri.Aine.Yuu.Sakura.SSKJ018.DVDRip.XviD.JAV.Uncensored-JapanX torrent

Sasuke.Jam.18.Yukina.Mori.Yuri.Aine.Yuu.Sakura.SSKJ018.DVDRip.XviD.JAV.Uncensored-JapanX
front.jpg63.45 Kb torrent search
japanx-sskj018-cd1.avi697.31 Mb torrent search
japanx-sskj018-cd2.avi697.25 Mb torrent search
japanx-sskj018.nfo854 bytes torrent search

Sample info:
Duration: 00:59:53.32, start: 0.000000, bitrate: 1627 kb/s
Stream #0.0: Video: mpeg4, yuv420p, 640x352 [PAR 1:1 DAR 20:11], 29.97 tb(r)
Stream #0.1: Audio: mp3, 48000 Hz, stereo, 32 kb/s
you may be interested in these torrents seeders leechers size found
Sasuke Jam 15 SSKJ015 DVDRip XviD JAV Uncensored JapanX 2 1 698.47 Mb 3 years ago

front.jpg japanx-sskj015.avi japanx-sskj015.nfo



素人百花 007 Sasuke Jam Vol 28 原田ともか~美少女理性崩壞 2 1 982.81 Mb 2 years ago

11月经典回顾.chm 12月合集.mht BT工




Sasuke Jam 26 Mai Misato SSKJ026 DVDRip XviD JAV Uncensored JapanX 1 1 696.55 Mb 2 years ago

front.jpg japanx-sskj026.avi japanx-sskj026.nfo 0


Sasuke Jam 17 SSKJ017 DVDRip XviD JAV Uncensored JapanX 1 1 696.77 Mb 3 years ago

front.jpg japanx-sskj017.avi japanx-sskj017.nfo


SSKJ 011 Sasuke Jam Vol 11 售春白書 2 未成年女子校生的危機 1 1 939.16 Mb 3 years ago

BT工厂.txt SSKJ-011.H264.avi SSKJ-011.j


Sasuke Jam #29 1 1 985.32 Mb 3 years ago

Sasuke Jam #29.avi


 

related search cloud

 japanx  xvid  uncensored  dvdrip  front  sakura  yukina  mori  yuri  aine