Torrent Search | Torrent Meta Search | Widgets

TGD 1080 mkv

10.01 Gb
found 2 years ago
▲ seeders: 4 ▼ leechers:4
your vote:
real:
fake:
Direct Download
THANK YOU
download torrent
  Direct Downloadsponsored

TGD 1080 mkv torrent

Information about the torrent TGD 1080 mkv. Seeders, leechers and torrent status is updated everyday.

If you want to download the video torrent TGD 1080 mkv you will need a torrent client.

Torrent Metasearch.

tracker
seeders
leechers
↓ torrent client compatible list

↑ hide torrent client compatible list

Help torrentproject.com to stay alive .
Add links of torrentproject.com in your favorite forum, blog, youtube, facebook, twitter etc.
reviews
140
torrent contents

TGD_1080.mkv torrent

TGD_1080.mkv10.01 Gb torrent search

Sample info:
Duration: 02:05:22.40, start: 0.000000, bitrate: 1344 kb/s
Stream #0.0(eng): Video: h264 (High), yuv420p, 1424x1080 [PAR 1:1 DAR 178:135], 23.98 fps, 23.98 tbr, 1k tbn, 47.95 tbc
Stream #0.1(rus): Audio: ac3, 48000 Hz, 5.1, s16, 448 kb/s (default)
Stream #0.2(eng): Audio: ac3, 48000 Hz, stereo, s16, 448 kb/s
Stream #0.3(ger): Audio: ac3, 48000 Hz, stereo, s16, 448 kb/s
Stream #0.4(rus): Subtitle: [0][0][0][0] / 0x0000 (default)
title	: ????? ?????
Stream #0.5(rus): Subtitle: [0][0][0][0] / 0x0000
title	: Wailer
Stream #0.6(rus): Subtitle: [0][0][0][0] / 0x0000
title	: Howard Bonsor
Stream #0.7(eng): Subtitle: [0][0][0][0] / 0x0000
title	: TITRA FILM
screenshots
TGD 1080 mkv torrent screenshot 02AE0F459EADECCD98DF4861CB5BDB9C9A332EAB TGD 1080 mkv torrent screenshot 02ae0f459eadeccd98df4861cb5bdb9c9a332eab torrent TGD 1080 mkv
TGD_1080.mkv images are auto generated please report any inapropriate images