Torrent Search | Torrent Meta Search | Widgets

Gay Samir Gets Fucked By An Arab

389.58 Mb
found 2 years ago
▲ seeders: 2 ▼ leechers:1
your vote:
real:
fake:
Direct Download
THANK YOU
download torrent
  Direct Downloadsponsored

Gay Samir Gets Fucked By An Arab torrent

Information about the torrent Gay Samir Gets Fucked By An Arab. Seeders, leechers and torrent status is updated several times per day.

If you want to download the video torrent Gay Samir Gets Fucked By An Arab you will need a torrent client.

Torrent Metasearch.

tracker
seeders
leechers
↓ torrent client compatible list

↑ hide torrent client compatible list

Help torrentproject.com to stay alive .
Add links of torrentproject.com in your favorite forum, blog, youtube, facebook, twitter etc.
reviews
140
torrent contents

Gay - Samir Gets Fucked By An Arab.avi torrent

Gay - Samir Gets Fucked By An Arab.avi389.58 Mb torrent search

Sample info:
Duration: 00:29:03.24, start: 0.000000, bitrate: 1874 kb/s
Stream #0.0: Video: mpeg4, yuv420p, 720x576 [PAR 1:1 DAR 5:4], 25 tbr, 25 tbn, 25 tbc
Stream #0.1: Audio: mp3, 48000 Hz, 2 channels, s16, 128 kb/s
screenshots
Gay Samir Gets Fucked torrent screenshot 02F7AE797356B40E29C9D44AD28C0EA827437EB5 Gay Samir Gets Fucked  torrent screenshot 02f7ae797356b40e29c9d44ad28c0ea827437eb5 torrent Gay Samir Gets Fucked
Gay - Samir Gets Fucked By An Arab.avi images are auto generated please report any inapropriate images
 

related search cloud

 arab  fucked  gets  samir