Torrent Search | Torrent Meta Search | Widgets

DivX XXX Rocco porno casting Romania

699.7 Mb
found 2 years ago
▲ seeders: 6 ▼ leechers:3
your vote:
real:
fake:
Direct Download
THANK YOU
download torrent
  Direct Downloadsponsored

DivX XXX Rocco porno casting Romania torrent

Information about the torrent DivX XXX Rocco porno casting Romania. Seeders, leechers and torrent status is updated everyday.

If you want to download the anal torrent DivX XXX Rocco porno casting Romania you will need a torrent client.

Torrent Metasearch.

tracker
seeders
leechers
↓ torrent client compatible list

↑ hide torrent client compatible list

Help torrentproject.com to stay alive .
Add links of torrentproject.com in your favorite forum, blog, youtube, facebook, twitter etc.
reviews
140
torrent contents

[DivX - XXX] Rocco porno casting Romania.avi torrent

[DivX - XXX] Rocco porno casting Romania.avi699.7 Mb torrent search

Sample info:
Duration: 01:06:21.36, start: 0.000000, bitrate: 1474 kb/s
Stream #0.0: Video: mpeg4, yuv420p, 512x384 [PAR 1:1 DAR 4:3], 29.97 fps, 29.97 tbr, 29.97 tbn, 30k tbc
Stream #0.1: Audio: mp3, 48000 Hz, stereo, s16, 131 kb/s
screenshots
DivX XXX Rocco porno torrent screenshot 0464768F6D389EA2667DFB5E0D3B1E29BA1E35FD DivX XXX Rocco porno  torrent screenshot 0464768f6d389ea2667dfb5e0d3b1e29ba1e35fd torrent DivX XXX Rocco porno
[DivX - XXX] Rocco porno casting Romania.avi images are auto generated please report any inapropriate images
 

related search cloud

 romania  casting  porno  rocco  divx