Torrent Search | Torrent Meta Search | Widgets

Un Medico In Famiglia 4

8.55 Gb
found 2 years ago
▲ seeders: 3 ▼ leechers:4
your vote:
real:
fake:
Direct Download
THANK YOU
download torrent
  Direct Downloadsponsored

Un Medico In Famiglia 4 torrent

Information about the torrent Un Medico In Famiglia 4. Seeders, leechers and torrent status is updated several times per day.

If you want to download the video torrent Un Medico In Famiglia 4 you will need a torrent client.

Torrent Metasearch.

tracker
seeders
leechers
↓ torrent client compatible list

↑ hide torrent client compatible list

Help torrentproject.com to stay alive .
Add links of torrentproject.com in your favorite forum, blog, youtube, facebook, twitter etc.
reviews
140
torrent contents

Un Medico In Famiglia 4 torrent

Un Medico In Famiglia 4
un medico in famiglia-4x01-ritorni.avi327.7 Mb torrent search
un medico in famiglia-4x02-nidi d'amore.avi340.87 Mb torrent search
un medico in famiglia-4x03-il voto.avi362.62 Mb torrent search
un medico in famiglia-4x04-tutti insieme appassionatamente.avi315.16 Mb torrent search
un medico in famiglia-4x05-molto rumore per nulla.avi367.47 Mb torrent search
un medico in famiglia-4x06-a casa del vampiro.avi313.97 Mb torrent search
un medico in famiglia-4x07-tra moglie e marito.avi326.43 Mb torrent search
un medico in famiglia-4x08-un clandestino a bordo.avi320.78 Mb torrent search
un medico in famiglia-4x09-relazioni e calendari.avi318.58 Mb torrent search
un medico in famiglia-4x10-chi bada alla badante.avi345.92 Mb torrent search
un medico in famiglia-4x11-segreti e bugie.avi353.61 Mb torrent search
un medico in famiglia-4x12-l'ospite di riguardo.avi355.51 Mb torrent search
un medico in famiglia-4x13-scherzi del destino.avi318.19 Mb torrent search
un medico in famiglia-4x14-il piede in due staffe.avi286.73 Mb torrent search
un medico in famiglia-4x15-questo matrimonio non sa da fare.avi325.76 Mb torrent search
un medico in famiglia-4x16-guido dove sei.avi368.86 Mb torrent search
un medico in famiglia-4x17-controfigure.avi281.69 Mb torrent search
un medico in famiglia-4x18-carte e corone.avi312.88 Mb torrent search
un medico in famiglia-4x19-problemi di cuore.avi375.55 Mb torrent search
un medico in famiglia-4x20-la signora martini.avi350.2 Mb torrent search
un medico in famiglia-4x21-terra di nessuno.avi302.46 Mb torrent search
un medico in famiglia-4x22-famiglie.avi307.55 Mb torrent search

Sample info:
Duration: 00:54:39.64, start: 0.000000, bitrate: 1309 kb/s
Stream #0.0: Video: mpeg4, yuv420p, 352x288 [PAR 1:1 DAR 11:9], 25 fps, 25 tbr, 25 tbn, 30k tbc
Stream #0.1: Audio: mp3, 44100 Hz, stereo, s16, 128 kb/s
screenshots
Un Medico In Famiglia torrent screenshot 04BEB0479A0279102A388576BD3E0A90904AFC43 Un Medico In Famiglia  torrent screenshot 04beb0479a0279102a388576bd3e0a90904afc43 torrent Un Medico In Famiglia
Un Medico In Famiglia 4 images are auto generated please report any inapropriate images
 

related search cloud

 medico  famiglia  questo  matrimonio  guido  staffe  fare  destino  riguardo  scherzi

Torrent Anonymous Download