Torrent Search | Torrent Meta Search | Widgets

Cento x Cento

       
29.87 Gb
found 2 years ago
▲ seeders: 2 ▼ leechers:13
your vote:
real:
fake:
Direct Download
THANK YOU
download torrent
  Direct Downloadsponsored

Cento x Cento torrent

Information about the torrent Cento x Cento. Seeders, leechers and torrent status is updated everyday.

If you want to download the video torrent Cento x Cento you will need a torrent client.

Torrent Metasearch.

.

tracker
seeders
leechers
↓ torrent client compatible list

↑ hide torrent client compatible list

Help torrentproject.com to stay alive .
Add links of torrentproject.com in your favorite forum, blog, youtube, facebook, twitter etc.
reviews
anonymous 09 Jan 2014, 10:01:26
4 Amici Trans Fottenti.mpg
140
torrent contents

Cento x Cento torrent

Cento x Cento
 4 Amici Trans...Fottenti
4 Amici Trans Fottenti.mpg879.51 Mb torrent search
_4 Amici TransFottenti.all.jpg.jpg471.83 Kb torrent search
cxc255copy.jpg122.33 Kb torrent search

Cento x Cento
 A Tutta Sborra
Cento x Cento - Turista per caso - A Tutta Sborra.mpg885.47 Mb torrent search
Cento x Cento - Turista per caso - A Tutta Sborra.mpg.jpg450.81 Kb torrent search
cxd293copy.jpg120.52 Kb torrent search

Cento x Cento
 Al di là della Fica
_Al di là della Fica.all.jpg.jpg457.74 Kb torrent search
Al Di La Della Fica.avi1.31 Gb torrent search
cxd279copy.jpg113.88 Kb torrent search

Cento x Cento
 Amiche Di Giochi Perversi
Amiche Di Giochi Perversi .avi1.37 Gb torrent search
Amiche Di Giochi Perversi .avi.jpg487.59 Kb torrent search
cxd430copy.jpg130.05 Kb torrent search

Cento x Cento
 Anime Perse
Cento x Cento - Shemale - Anime perse.avi1.09 Gb torrent search
Cento x Cento - Shemale - Anime perse.avi.jpg439.42 Kb torrent search
cxd381copy.jpg120.95 Kb torrent search

Cento x Cento
 Arrapatissimi
Arrapatissimi .avi1.31 Gb torrent search
Arrapatissimi .avi.jpg474.47 Kb torrent search
cxd274copy.jpg120.06 Kb torrent search

Cento x Cento
 Chi C'è C'è
cxc241copy.jpg123.3 Kb torrent search
New Shemale Cento X Cento Chi C'e C'e.mpg768.1 Mb torrent search
New Shemale Cento X Cento Chi C'e C'e.mpg.jpg424.58 Kb torrent search

Cento x Cento
 Chi l'Avrebbe Detto!
cxd321copy.jpg158.36 Kb torrent search
Turista per caso - Chi L'avrebbe Detto(Shemale).avi940.95 Mb torrent search
Turista per caso - Chi L'avrebbe Detto(Shemale).avi.jpg467.42 Kb torrent search

Cento x Cento
 Chiavata Bestiale con un Trans

Sample info:
Duration: 00:56:29.00, start: 0.000000, bitrate: 3465 kb/s
Stream #0.0: Video: mpeg4, yuv420p, 720x544 [PAR 1:1 DAR 45:34], 25 tbr, 25 tbn, 25 tbc
Stream #0.1: Audio: ac3, 48000 Hz, stereo, s16, 192 kb/s
screenshots
Cento x Cento torrent screenshot 0515553D8FF6A155C2E1A2ED090274CAEB455A72 Cento x Cento torrent screenshot 0515553d8ff6a155c2e1a2ed090274caeb455a72 torrent Cento x Cento
Cento x Cento images are auto generated please report any inapropriate images
 

related search cloud

 cento  copy  shemale  caso  turista  detto  perversi  perse  arrapatiimi  giochi

Torrent Anonymous Download