Torrent Search | Torrent Meta Search | Widgets

Video bestial

713.1 Mb
found 2 years ago
▲ seeders: 6 ▼ leechers:2
your vote:
real:
fake:
Direct Download
THANK YOU
download torrent
  Direct Downloadsponsored

Video bestial torrent

Information about the torrent Video bestial. Seeders, leechers and torrent status is updated several times per day.

If you want to download the blowjobs torrent Video bestial you will need a torrent client.

Torrent Metasearch.

tracker
seeders
leechers
↓ torrent client compatible list

↑ hide torrent client compatible list

Help torrentproject.com to stay alive .
Add links of torrentproject.com in your favorite forum, blog, youtube, facebook, twitter etc.
reviews
140
torrent contents

Video bestial torrent

Video bestial
Animal Sex - Zooskool - Simply Simone [animal zoo beast bestiality farm barn fuck sex dog].avi353.55 Mb torrent search
dogfuck_labrador_REMASTERED.avi41.46 Mb torrent search
Horsefuck Blondiene Wird Bis Zum Orgasmus Vom Pferd Gefickt.mpg29.66 Mb torrent search
violatorcum_c700 - dog sex, doggystyle, fuck, anal, blowjob (animalsex bestiality zoo zoosex).mpg10.71 Mb torrent search
Zooskool - Stray X - The Record EXCELLENT 8 dogs fuck cute girl [animal zoo beast bestiality farm barn fuck sex dog].avi277.72 Mb torrent search

Sample info:
Duration: 00:26:36.89, start: 0.000000, bitrate: 1857 kb/s
Stream #0.0: Video: mpeg4, yuv420p, 720x576 [PAR 1:1 DAR 5:4], 29.97 fps, 29.97 tbr, 29.97 tbn, 30k tbc
Stream #0.1: Audio: mp3, 48000 Hz, 2 channels, s16, 160 kb/s
screenshots
Video bestial torrent screenshot 0539E49094367DAD4D5AA804C0A34E6032773A64 Video bestial torrent screenshot 0539e49094367dad4d5aa804c0a34e6032773a64 torrent Video bestial
Video bestial images are auto generated please report any inapropriate images
 

related search cloud

 fuck  bestiality  animal  beast  farm  barn  zooskool  animalsex  zoosex  blowjob