Torrent Search | Torrent Meta Search | Widgets

Raped In Front of Husband Sora Aoi

3.44 Gb
found 2 years ago
▲ seeders: 16 ▼ leechers:7
your vote:
real:
fake:
Direct Download
THANK YOU
download torrent
  Direct Downloadsponsored

Raped In Front of Husband Sora Aoi torrent

Information about the torrent Raped In Front of Husband Sora Aoi. Seeders, leechers and torrent status is updated everyday.

If you want to download the video torrent Raped In Front of Husband Sora Aoi you will need a torrent client.

Torrent Metasearch.

tracker
seeders
leechers
↓ torrent client compatible list

↑ hide torrent client compatible list

Help torrentproject.com to stay alive .
Add links of torrentproject.com in your favorite forum, blog, youtube, facebook, twitter etc.
reviews
anonymous 07 Apr 2014, 11:04:39
can i find english subtitle for this movie?n
140
torrent contents

Raped.In.Front.of.Husband.(Sora.Aoi) torrent

Raped.In.Front.of.Husband.(Sora.Aoi)
[SOE-339].Part I.mkv1.72 Gb torrent search
[SOE-339].Part II.mkv1.72 Gb torrent search

Sample info:
Duration: 00:59:45.11, start: 0.000000, bitrate: N/A
Stream #0.0: Video: mpeg4 (Simple Profile), yuv420p, 1280x720 [PAR 1:1 DAR 16:9], 29.97 tbr, 1k tbn, 2997 tbc (default)
Stream #0.1: Audio: aac, 44100 Hz, stereo, s16 (default)
Stream #0.2: Subtitle: ass (default)
screenshots
Raped In Front of torrent screenshot 064E75C10474AEEE765B7FDBE208F3C9A560EC03 Raped In Front of  torrent screenshot 064e75c10474aeee765b7fdbe208f3c9a560ec03 torrent Raped In Front of
Raped.In.Front.of.Husband.(Sora.Aoi) images are auto generated please report any inapropriate images
 

related search cloud

 part  sora  husband  front  raped