Torrent Search | Torrent Meta Search | Widgets

Russian Mom and Son Incest Collection

3.98 Gb
found 2 years ago
▲ seeders: 33 ▼ leechers:23
your vote:
real:
fake:
Direct Download
THANK YOU
download torrent
  Direct Downloadsponsored

Russian Mom and Son Incest Collection torrent

Information about the torrent Russian Mom and Son Incest Collection. Seeders, leechers and torrent status is updated everyday.

If you want to download the video torrent Russian Mom and Son Incest Collection you will need a torrent client.

Torrent Metasearch.

tracker
seeders
leechers
↓ torrent client compatible list

↑ hide torrent client compatible list

Help torrentproject.com to stay alive .
Add links of torrentproject.com in your favorite forum, blog, youtube, facebook, twitter etc.
reviews
140
torrent contents

Russian Mom and Son Incest Collection torrent

Russian Mom and Son Incest Collection
 RussianMomAndSon
GSO.mpg106.91 Mb torrent search
RMS06.mpg159.39 Mb torrent search
RMS07.avi98.46 Mb torrent search
RMS19.avi93.73 Mb torrent search
RMS31.mpg204.29 Mb torrent search
RMS33.avi76.95 Mb torrent search
RMS36.avi99.31 Mb torrent search
RMS38.avi73.24 Mb torrent search
RMS40.avi76.8 Mb torrent search
RMS43.avi95.07 Mb torrent search
RMS45.avi135.57 Mb torrent search
RMS46.avi80.29 Mb torrent search
RMS47.mpg125.59 Mb torrent search
RMS49.mpg85.17 Mb torrent search
RMS53.mpg135.28 Mb torrent search
RMS54.avi149.38 Mb torrent search
Thumbs.db10.5 Kb torrent search

Russian Mom and Son Incest Collection
 RussianMomAndSon2
(GuysForMatures.com).Russian.Mature.Women.Having.Sex.With.Young.Guys.36.by.SharElita.com.XXX.Team.avi175.87 Mb torrent search
(GuysForMatures.com).Russian.Mature.Women.Having.Sex.With.Young.Guys.38.by.SharElita.com.XXX.Team.avi176.33 Mb torrent search
(GuysForMatures.com).Russian.Mature.Women.Having.Sex.With.Young.Guys.44.by.SharElita.com.XXX.Team.avi163.47 Mb torrent search
(GuysForMatures.com).Russian.Mature.Women.Having.Sex.With.Young.Guys.45.by.SharElita.com.XXX.Team.avi192.23 Mb torrent search
(GuysForMatures.com).Russian.Mature.Women.Having.Sex.With.Young.Guys.47.by.SharElita.com.XXX.Team.avi173.98 Mb torrent search
(GuysForMatures.com).Russian.Mature.Women.Having.Sex.With.Young.Guys.53.by.SharElita.com.XXX.Team.avi176.7 Mb torrent search
(GuysForMatures.com).Russian.Mature.Women.Having.Sex.With.Young.Guys.54.by.SharElita.com.XXX.Team.avi228.51 Mb torrent search
(GuysForMatures.com).Russian.Mature.Women.Having.Sex.With.Young.Guys.57.by.SharElita.com.XXX.Team.avi174.06 Mb torrent search

Sample info:
Duration: 00:16:45.68, start: 0.000000, bitrate: 2056 kb/s
Stream #0.0: Video: mpeg4, yuv420p, 640x480 [PAR 1:1 DAR 4:3], 25.00 tb(r)
Stream #0.1: Audio: mp3, 24000 Hz, stereo, 48 kb/s
screenshots
Russian Mom and Son torrent screenshot 06E0716970F92EA85281878C3AB81AD6A101CD9B Russian Mom and Son  torrent screenshot 06e0716970f92ea85281878c3ab81ad6a101cd9b torrent Russian Mom and Son
Russian Mom and Son Incest Collection images are auto generated please report any inapropriate images
you may be interested in these torrents seeders leechers size found
RUSSIAN MOM AND SON 4     4 1 41.26 Mb 4 years ago

Russian mom son 4.avi


RUSSIAN MOM and SON 1 REAL HOME VIDEO SEX 4 1 20.01 Mb 4 years ago

Russian mom and son 1 (Dowland from Poland).mpg


Russian Mom And Son 05 Mohax Sharelita 3 2 173.79 Mb 4 years ago

Russian Mom And Son 05 Mohax Sharelita.avi Russian Mom And Son 05 Mohax Sharelita.jpg


Russian Mom and son real 5 3 1 46.84 Mb 4 years ago

Russian Mom Son Real 5.avi screens_Russian Mom Son Real 5.jpg


Russian Mom & Two sons 2 1 139.44 Mb 4 years ago

Russian Mom &Two Sons (Upload Gustek PL).avi


Russian Mom and Son 2XXX 2 1 176.33 Mb 1 year ago

Russian Mom and Son 2.avi


Russian Mom And Son XviD 0 1 17.71 Mb 3 years ago

Russian Mom And Son_xvid.avi


Incest Russian Mom & Drunk Son 0 1 37.55 Mb 4 years ago

Incest Russian Mom &Drunk Son.avi


mature screen russian mom and son 038 0 1 73.24 Mb 4 years ago

mature screen - russian mom and son 038.avi


 

related search cloud

 ruian  having  young  guys  team  sharelita  women  mature  guysformatures  incest