Torrent Search | Torrent Meta Search | Widgets

Xxx Porno Videos Amateur Tits Sex Hard Zoo Mature Animal Sex French Teen Fuck Dog And Suck Till Cum In Her Mouth

       
855.51 Mb
found 2 years ago
▲ seeders: 20 ▼ leechers:6
your vote:
real:
fake:
Direct Download
THANK YOU
download torrent
  Direct Downloadsponsored

Xxx Porno Videos Amateur Tits Sex Hard Zoo Mature Animal Sex French Teen Fuck Dog And Suck Till Cum In Her Mouth torrent

Information about the torrent Xxx Porno Videos Amateur Tits Sex Hard Zoo Mature Animal Sex French Teen Fuck Dog And Suck Till Cum In Her Mouth. Seeders, leechers and torrent status is updated several times per day.

If you want to download the milf torrent Xxx Porno Videos Amateur Tits Sex Hard Zoo Mature Animal Sex French Teen Fuck Dog And Suck Till Cum In Her Mouth you will need a torrent client.

Torrent Metasearch.

.

tracker
seeders
leechers
↓ torrent client compatible list

↑ hide torrent client compatible list

Help torrentproject.com to stay alive .
Add links of torrentproject.com in your favorite forum, blog, youtube, facebook, twitter etc.
reviews
anonymous 14 Jan 2014, 04:01:06
Animal hot xxx
140
torrent contents

Xxx Porno Videos Amateur Tits Sex Hard Zoo Mature Animal Sex - French Teen Fuck Dog And Suck Till Cum In Her Mouth.mpg torrent

Xxx Porno Videos Amateur Tits Sex Hard Zoo Mature Animal Sex - French Teen Fuck Dog And Suck Till Cum In Her Mouth.mpg855.51 Mb torrent search

Sample info:
Duration: 00:34:49.95, start: 0.218767, bitrate: 3433 kb/s
Stream #0.0[0x1e0]: Video: [0][0][0][0] / 0x0000, 90k tbr, 90k tbn
Stream #0.1[0x1c0]: Audio: mp2, 44100 Hz, 2 channels, s16, 224 kb/s
screenshots
Xxx Porno Videos Amateur torrent screenshot 07354333533F8C818436E8D95DB3D1A238FFBB72 Xxx Porno Videos Amateur  torrent screenshot 07354333533f8c818436e8d95db3d1a238ffbb72 torrent Xxx Porno Videos Amateur
Xxx Porno Videos Amateur Tits Sex Hard Zoo Mature Animal Sex - French Teen Fuck Dog And Suck Till Cum In Her Mouth.mpg images are auto generated please report any inapropriate images
 

related search cloud

 fuck  french  suck  till  mouth  animal  mature  videos  amateur  tits

Torrent Anonymous Download