Torrent Search | Torrent Meta Search | Widgets

Caligula and Messalina

       
1.01 Gb
found 2 years ago
▲ seeders: 6 ▼ leechers:3
your vote:
real:
fake:
Direct Download
THANK YOU
download torrent
  Direct Downloadsponsored

Caligula and Messalina torrent

Information about the torrent Caligula and Messalina. Seeders, leechers and torrent status is updated several times per day.

If you want to download the video torrent Caligula and Messalina you will need a torrent client.

Torrent Metasearch.

Torrent verified by kat.ph.

tracker
seeders
leechers
↓ torrent client compatible list

↑ hide torrent client compatible list

Help torrentproject.com to stay alive .
Add links of torrentproject.com in your favorite forum, blog, youtube, facebook, twitter etc.
reviews
140
torrent contents

Caligula and Messalina.avi torrent

Caligula and Messalina.avi1.01 Gb torrent search

Sample info:
Duration: 01:47:55.88, start: 0.000000, bitrate: 1337 kb/s
Stream #0.0: Video: mpeg4 (Advanced Simple Profile), yuv420p, 608x272 [PAR 1:1 DAR 38:17], 25 tbr, 25 tbn, 25 tbc
Stream #0.1: Audio: mp3, 48000 Hz, stereo, s16, 128 kb/s
screenshots
Caligula and Messalina torrent screenshot 07503AFF5EFD3DB06C2426FCCD1B2451E87FDEF5 Caligula and Messalina torrent screenshot 07503aff5efd3db06c2426fccd1b2451e87fdef5 torrent Caligula and Messalina
Caligula and Messalina.avi images are auto generated please report any inapropriate images
 

related search cloud

 mealina  caligula