Torrent Search | Torrent Meta Search | Widgets

La leyenda del indomable trap

1.29 Gb
found 2 years ago
▲ seeders: 12 ▼ leechers:2
your vote:
real:
fake:
Direct Download
THANK YOU
download torrent
  Direct Downloadsponsored

La leyenda del indomable trap torrent

Information about the torrent La leyenda del indomable trap. Seeders, leechers and torrent status is updated everyday.

If you want to download the video torrent La leyenda del indomable trap you will need a torrent client.

Torrent Metasearch.

tracker
seeders
leechers
↓ torrent client compatible list

↑ hide torrent client compatible list

Help torrentproject.com to stay alive .
Add links of torrentproject.com in your favorite forum, blog, youtube, facebook, twitter etc.
reviews
140
torrent contents

La leyenda del indomable.trap.avi torrent

La leyenda del indomable.trap.avi1.29 Gb torrent search

Sample info:
Duration: 02:01:22.16, start: 0.000000, bitrate: 1523 kb/s
Stream #0.0: Video: mpeg4, yuv420p, 656x272 [PAR 1:1 DAR 41:17], 25 tbr, 25 tbn, 25 tbc
Stream #0.1: Audio: ac3, 48000 Hz, mono, s16, 192 kb/s
screenshots
La leyenda del indomable torrent screenshot 07A08BED283485144C500B94D18AA6BBCA0EB755 La leyenda del indomable  torrent screenshot 07a08bed283485144c500b94d18aa6bbca0eb755 torrent La leyenda del indomable
La leyenda del indomable.trap.avi images are auto generated please report any inapropriate images
 

related search cloud

 trap  indomable  leyenda

Torrent Anonymous Download