Torrent Search | Torrent Meta Search | Widgets

lmvideo Milk passion

253.25 Mb
found 2 years ago
▲ seeders: 2 ▼ leechers:1
your vote:
real:
fake:
Direct Download
THANK YOU
download torrent
  Direct Downloadsponsored

lmvideo Milk passion torrent

Information about the torrent lmvideo Milk passion. Seeders, leechers and torrent status is updated several times per day.

If you want to download the video torrent lmvideo Milk passion you will need a torrent client.

Torrent Metasearch.

tracker
seeders
leechers
↓ torrent client compatible list

↑ hide torrent client compatible list

Help torrentproject.com to stay alive .
Add links of torrentproject.com in your favorite forum, blog, youtube, facebook, twitter etc.
reviews
140
torrent contents

lmvideo___Milk_passion.mpg torrent

lmvideo___Milk_passion.mpg253.25 Mb torrent search

Sample info:
Duration: 00:22:03.86, start: 0.213367, bitrate: 1604 kb/s
Stream #0.0[0x1e0]: Video: mpeg1video, yuv420p, 320x240 [PAR 200:219 DAR 800:657], 500 kb/s, 29.97 fps, 29.97 tbr, 90k tbn, 29.97 tbc
Stream #0.1[0x1c0]: Audio: mp2, 32000 Hz, 2 channels, s16, 64 kb/s
screenshots
lmvideo Milk passion torrent screenshot 085FEF74CC53CCACE7B2FF0E250D9866B74DE803 lmvideo Milk passion torrent screenshot 085fef74cc53ccace7b2ff0e250d9866b74de803 torrent lmvideo Milk passion
lmvideo___Milk_passion.mpg images are auto generated please report any inapropriate images
 

related search cloud

 paion  milk  lmvideo

Torrent Anonymous Download