Torrent Search | Torrent Meta Search | Widgets

GFRevenge My Girls Girl Daisy Summers Shae Summers flv

407.8 Mb
found 9 months ago
▲ seeders: 36 ▼ leechers:6
your vote:
real:
fake:
Direct Download
THANK YOU
download torrent
  Direct Downloadsponsored

GFRevenge My Girls Girl Daisy Summers Shae Summers flv torrent

Information about the torrent GFRevenge My Girls Girl Daisy Summers Shae Summers flv. Seeders, leechers and torrent status is updated several times per day.

If you want to download the video torrent GFRevenge My Girls Girl Daisy Summers Shae Summers flv you will need a torrent client.

Torrent Metasearch.

tracker
seeders
leechers
↓ torrent client compatible list

↑ hide torrent client compatible list

Help torrentproject.com to stay alive .
Add links of torrentproject.com in your favorite forum, blog, youtube, facebook, twitter etc.
reviews
140
torrent contents

GFRevenge - My Girls Girl - Daisy Summers, Shae Summers.flv torrent

GFRevenge - My Girls Girl - Daisy Summers, Shae Summers.flv407.8 Mb torrent search

Sample info:
Duration: 00:36:54.16, start: 0.000000, bitrate: 1544 kb/s
Stream #0:0: Video: h264 (Main), yuv420p, 768x432 [SAR 1:1 DAR 16:9], 30 tbr, 1k tbn, 60 tbc
Stream #0:1: Audio: aac, 32000 Hz, mono, s16
screenshots
GFRevenge My Girls Girl torrent screenshot 095C776375170EBBB8873CB2B1AA96D1668CB7DE GFRevenge My Girls Girl  torrent screenshot 095c776375170ebbb8873cb2b1aa96d1668cb7de torrent GFRevenge My Girls Girl
GFRevenge - My Girls Girl - Daisy Summers, Shae Summers.flv images are auto generated please report any inapropriate images
 

related search cloud

 summers  shae  daisy  girl  girls  gfrevenge