Torrent Search | Torrent Meta Search | Widgets

Chronicles Of Animals Milking The Horse

       
460.35 Mb
found 2 years ago
▲ seeders: 9 ▼ leechers:2
your vote:
real:
fake:
Direct Download
THANK YOU
download torrent
  Direct Downloadsponsored

Chronicles Of Animals Milking The Horse torrent

Information about the torrent Chronicles Of Animals Milking The Horse. Seeders, leechers and torrent status is updated several times per day.

If you want to download the video torrent Chronicles Of Animals Milking The Horse you will need a torrent client.

Torrent Metasearch.

.

tracker
seeders
leechers
↓ torrent client compatible list

↑ hide torrent client compatible list

Help torrentproject.com to stay alive .
Add links of torrentproject.com in your favorite forum, blog, youtube, facebook, twitter etc.
reviews
140
torrent contents

Chronicles_Of_Animals_Milking_The_Horse torrent

Chronicles_Of_Animals_Milking_The_Horse
Chronicles_Of_Animals_Milking_The_Horse.avi460.34 Mb torrent search
RARE VIDEO FREE.png13.24 Kb torrent search

Sample info:
Duration: 00:55:11.54, start: 0.000000, bitrate: 1166 kb/s
Stream #0.0: Video: mpeg4, yuv420p, 720x480 [PAR 1:1 DAR 3:2], 29.97 fps, 29.97 tbr, 29.97 tbn, 2997 tbc
Stream #0.1: Audio: mp3, 48000 Hz, 2 channels, s16, 128 kb/s
screenshots
Chronicles Of Animals Milking torrent screenshot 09BAC010A2C8973A4FF8DBF0420F47F9FC8F85F6 Chronicles Of Animals Milking  torrent screenshot 09bac010a2c8973a4ff8dbf0420f47f9fc8f85f6 torrent Chronicles Of Animals Milking
Chronicles_Of_Animals_Milking_The_Horse images are auto generated please report any inapropriate images
 

related search cloud

 chronicles  milking  horse  animals  free  rare  video