Torrent Search | Torrent Meta Search | Widgets

Culioneros Cayenne Klein's Perfect Ass 720p

983.57 Mb
found 1 year ago
▲ seeders: 7 ▼ leechers:2
your vote:
real:
fake:
Direct Download
THANK YOU
download torrent
  Direct Downloadsponsored

Culioneros Cayenne Klein's Perfect Ass 720p torrent

Information about the torrent Culioneros Cayenne Klein's Perfect Ass 720p. Seeders, leechers and torrent status is updated several times per day.

If you want to download the hdrip torrent Culioneros Cayenne Klein's Perfect Ass 720p you will need a torrent client.

Torrent Metasearch.

tracker
seeders
leechers
↓ torrent client compatible list

↑ hide torrent client compatible list

Help torrentproject.com to stay alive .
Add links of torrentproject.com in your favorite forum, blog, youtube, facebook, twitter etc.
reviews
140
torrent contents

Culioneros - Cayenne Klein's Perfect Ass [720p].mp4 torrent

Culioneros - Cayenne Klein's Perfect Ass [720p].mp4983.57 Mb torrent search

Sample info:
Duration: 00:44:57.97, start: 0.000000, bitrate: 3058 kb/s
Stream #0:0(eng): Video: h264 (Main) (avc1 / 0x31637661), yuv420p, 1280x720 [SAR 1:1 DAR 16:9], 2981 kb/s, 29.97 fps, 29.97 tbr, 2997 tbn, 59.94 tbc
creation_time	: 2013-07-03 20:38:30
handler_name	: VideoHandler
Stream #0:1(eng): Audio: aac (mp4a / 0x6134706D), 44100 Hz, stereo, s16, 67 kb/s
creation_time	: 2013-07-03 20:38:30
handler_name	: SoundHandler
screenshots
Culioneros Cayenne Klein's Perfect torrent screenshot 0B3139303E7E37D299B56FFEAB1DF43F964F81A6 Culioneros Cayenne Klein's Perfect  torrent screenshot 0b3139303e7e37d299b56ffeab1df43f964f81a6 torrent Culioneros Cayenne Klein's Perfect
Culioneros - Cayenne Klein's Perfect Ass [720p].mp4 images are auto generated please report any inapropriate images
you may be interested in these torrents seeders leechers size found
Culioneros Cayenne Kleins PerfectAss 1 1 983.57 Mb 1 year ago

RARBG.com.txt Culioneros - Cayenne Klein's Perfect Ass [720p].mp4


Culioneros Cayenne Kleins PerfectAss 1 0 983.57 Mb 1 year ago

RARBG.com.txt Culioneros - Cayenne Klein's Perfect Ass [720p].mp4


Culioneros Cayenne Kleins Perfect Ass 720p 0 1 957.83 Mb 1 year ago

Culioneros - Cayenne Kleins Perfect Ass [720p].mp4.avi


Culioneros Cayenne Klein 0 4 983.57 Mb 1 year ago

Culioneros - Cayenne Klein.avi


 

related search cloud

 perfect  klein  cayenne  culioneros