Torrent Search | Torrent Meta Search | Widgets

Lolly Ink Spandex Loads 7

411.21 Mb
found 10 months ago
▲ seeders: 3 ▼ leechers:8
your vote:
real:
fake:
Direct Download
THANK YOU
download torrent
  Direct Downloadsponsored

Lolly Ink Spandex Loads 7 torrent

Information about the torrent Lolly Ink Spandex Loads 7. Seeders, leechers and torrent status is updated everyday.

If you want to download the video torrent Lolly Ink Spandex Loads 7 you will need a torrent client.

Torrent Metasearch.

tracker
seeders
leechers
↓ torrent client compatible list

↑ hide torrent client compatible list

Help torrentproject.com to stay alive .
Add links of torrentproject.com in your favorite forum, blog, youtube, facebook, twitter etc.
reviews
140
torrent contents

Lolly Ink - Spandex Loads 7.mp4 torrent

Lolly Ink - Spandex Loads 7.mp4411.21 Mb torrent search

Sample info:
Duration: 00:43:07.75, start: 0.000000, bitrate: 1333 kb/s
Stream #0:0	: Video: h264 (High) (avc1 / 0x31637661), yuv420p, 720x400 [SAR 80:81 DAR 16:9], 1198 kb/s, SAR 79:80 DAR 711:400, 29.97 fps, 29.97 tbr, 2997 tbn, 59.94 tbc
creation_time	: 1970-01-01 00:00:00
handler_name	: VideoHandler
Stream #0:1	: Audio: aac (mp4a / 0x6134706D), 44100 Hz, stereo, s16, 127 kb/s
creation_time	: 1970-01-01 00:00:00
handler_name	: SoundHandler
screenshots
Lolly Ink Spandex Loads torrent screenshot 0C6FB11F2A5E8EED30C3636D83C149D6A10A6D8A Lolly Ink Spandex Loads  torrent screenshot 0c6fb11f2a5e8eed30c3636d83c149d6a10a6d8a torrent Lolly Ink Spandex Loads
Lolly Ink - Spandex Loads 7.mp4 images are auto generated please report any inapropriate images
 

related search cloud

 loads  spandex  lolly