Torrent Search | Torrent Meta Search | Widgets

IPZ 366

1.23 Gb
found 4 months ago
▲ seeders: 1 ▼ leechers:1
your vote:
real:
fake:
Direct Download
THANK YOU
download torrent
  Direct Downloadsponsored

IPZ 366 torrent

Information about the torrent IPZ 366. Seeders, leechers and torrent status is updated everyday.

If you want to download the video torrent IPZ 366 you will need a torrent client.

Torrent Metasearch.

tracker
seeders
leechers
↓ torrent client compatible list

↑ hide torrent client compatible list

Help torrentproject.com to stay alive .
Add links of torrentproject.com in your favorite forum, blog, youtube, facebook, twitter etc.
reviews
140
torrent contents

IPZ-366 torrent

IPZ-366
IPZ-366.wmv1.23 Gb torrent search
1063715@18p2p.com.txt17 bytes torrent search

Sample info:
Duration: 01:59:58.03, start: 0.000000, bitrate: 1462 kb/s
Stream #0:0(eng): Audio: wmapro (b[1][0][0] / 0x0162), 44100 Hz, stereo, flt, 128 kb/s
Stream #0:1(eng): Video: wmv1 (WMV1 / 0x31564D57), yuv420p, 720x404, 1500 kb/s, 29.97 tbr, 1k tbn, 1k tbc
screenshots
IPZ 366 torrent screenshot 0C932539A6B374097ED58293BAF04A9F457754F0 IPZ 366 torrent screenshot 0c932539a6b374097ed58293baf04a9f457754f0 torrent IPZ 366
IPZ-366 images are auto generated please report any inapropriate images