Torrent Search | Torrent Meta Search | Widgets

Vanakkam Chennai ~ (2013) ~ TC Rip ~ XviD ~ 700MB ~ Uyirvani

690.97 Mb
found 10 months ago
▲ seeders: 9 ▼ leechers:0
your vote:
real:
fake:
Direct Download
THANK YOU
download torrent
  Direct Downloadsponsored

Vanakkam Chennai ~ (2013) ~ TC Rip ~ XviD ~ 700MB ~ Uyirvani torrent

Information about the torrent Vanakkam Chennai ~ (2013) ~ TC Rip ~ XviD ~ 700MB ~ Uyirvani. Seeders, leechers and torrent status is updated everyday.

If you want to download the lq torrent Vanakkam Chennai ~ (2013) ~ TC Rip ~ XviD ~ 700MB ~ Uyirvani you will need a torrent client.

Torrent Metasearch.

tracker
seeders
leechers
↓ torrent client compatible list

↑ hide torrent client compatible list

Help torrentproject.com to stay alive .
Add links of torrentproject.com in your favorite forum, blog, youtube, facebook, twitter etc.
reviews
140
torrent contents

Vanakkam Chennai ~ 2013 ~ TC-Rip ~ Xvid ~ 700MB ~ Uyirvani.avi torrent

Vanakkam Chennai ~ 2013 ~ TC-Rip ~ Xvid ~ 700MB ~ Uyirvani.avi690.97 Mb torrent search

Sample info:
Duration: 02:25:41.49, start: 0.000000, bitrate: 663 kb/s
Stream #0:0: Video: mpeg4 (Advanced Simple Profile) (XVID / 0x44495658), yuv420p, 608x256 [SAR 1:1 DAR 19:8], 29.97 tbr, 29.97 tbn, 29.97 tbc
Stream #0:1: Audio: mp3 (U[0][0][0] / 0x0055), 24000 Hz, stereo, s16, 64 kb/s
title	: Vanakkam Chennai (2013) - DVDSCR-cut.avi_track_1_
screenshots
Vanakkam Chennai 2013 TC torrent screenshot 0CAF648FFD0A835EC1868DA5D807454BF84A944F Vanakkam Chennai 2013 TC  torrent screenshot 0caf648ffd0a835ec1868da5d807454bf84a944f torrent Vanakkam Chennai 2013 TC
Vanakkam Chennai ~ 2013 ~ TC-Rip ~ Xvid ~ 700MB ~ Uyirvani.avi images are auto generated please report any inapropriate images
 

related search cloud

 uyirvani  xvid  chennai  vanakkam