Torrent Search | Torrent Meta Search | Widgets

SIRO 1690

1.29 Gb
found 9 months ago
▲ seeders: 23 ▼ leechers:10
your vote:
real:
fake:
Direct Download
THANK YOU
download torrent
  Direct Downloadsponsored

SIRO 1690 torrent

Information about the torrent SIRO 1690. Seeders, leechers and torrent status is updated everyday.

If you want to download the video torrent SIRO 1690 you will need a torrent client.

Torrent Metasearch.

tracker
seeders
leechers
↓ torrent client compatible list

↑ hide torrent client compatible list

Help torrentproject.com to stay alive .
Add links of torrentproject.com in your favorite forum, blog, youtube, facebook, twitter etc.
reviews
anonymous 10 Aug 2014, 09:08:52
nice
anonymous 19 Jun 2014, 09:06:42
very good
anonymous 08 Jan 2014, 08:01:30
Good
anonymous 08 Jan 2014, 08:01:16
Good
140
torrent contents

SIRO-1690 torrent

SIRO-1690
QQ图片20131130120103.jpg138.33 Kb torrent search
QQ图片20131130120321.jpg137.97 Kb torrent search
QQ图片20131130120428.jpg141.2 Kb torrent search
QQ图片20131130120741.jpg191.67 Kb torrent search
QQ图片20131130120911.jpg230.94 Kb torrent search
SIRO-1690 A.jpg889.3 Kb torrent search
SIRO-1690.wmv1.29 Gb torrent search
hsq1994@公仔箱論壇.txt33 bytes torrent search
hsq1994@公仔箱論壇.url113 bytes torrent search
tifafan@weibo.txt torrent search
严禁二次制种.txt torrent search

Sample info:
Duration: 00:42:35.40, start: 0.000000, bitrate: 4336 kb/s
Stream #0:0(eng): Audio: wmav2 (a[1][0][0] / 0x0161), 44100 Hz, stereo, s16, 176 kb/s
Stream #0:1(eng): Video: wmv3 (Main) (WMV3 / 0x33564D57), yuv420p, 1920x1080, 4147 kb/s, SAR 1:1 DAR 16:9, 30 tbr, 1k tbn, 1k tbc
screenshots
SIRO 1690 torrent screenshot 0DEB37FCA85AAFC733D2D0AD4393758696135EE7 SIRO 1690 torrent screenshot 0deb37fca85aafc733d2d0ad4393758696135ee7 torrent SIRO 1690
SIRO-1690 images are auto generated please report any inapropriate images
 

related search cloud

 siro  weibo  tifafan