Torrent Search | Torrent Meta Search | Widgets

Color Climax John Holmes Movie Collection

678.26 Mb
found 2 years ago
▲ seeders: 5 ▼ leechers:2
your vote:
real:
fake:
Direct Download
THANK YOU
download torrent
  Direct Downloadsponsored

Color Climax John Holmes Movie Collection torrent

Information about the torrent Color Climax John Holmes Movie Collection. Seeders, leechers and torrent status is updated everyday.

If you want to download the adult torrent Color Climax John Holmes Movie Collection you will need a torrent client.

Torrent Metasearch.

No trackers with seeders or leechers have been found, this doesn't mean that the torrent Color Climax John Holmes Movie Collection is dead
Help torrentproject.com to stay alive .
Add links of torrentproject.com in your favorite forum, blog, youtube, facebook, twitter etc.
reviews
140
torrent contents

Color Climax - John Holmes Movie Collection torrent

Color Climax - John Holmes Movie Collection
a_mile_of_meat.qt51.09 Mb torrent search
almost too big.mp450.35 Mb torrent search
big cock.mp449.35 Mb torrent search
big_dick_addict.mov66.16 Mb torrent search
big_fun_with_john.qt50.87 Mb torrent search
big_john.qt62.82 Mb torrent search
fill_me_johnny.qt50.11 Mb torrent search
her_biggest_day.mov60.99 Mb torrent search
holmes_for_two.qt62.2 Mb torrent search
king_dong.qt49.47 Mb torrent search
mr_big_cock.qt65.4 Mb torrent search
stuffed_arseholes.qt59.44 Mb torrent search

Sample info:
Duration: 00:08:22.12, start: 0.000000, bitrate: 1105 kb/s
Stream #0.0(eng): Video: mpeg4, yuv420p, 400x300 [PAR 1:1 DAR 4:3], 917 kb/s, 25 fps, 25 tbr, 600 tbn, 1k tbc
creation_time	: 2003-05-03 23:13:43
Stream #0.1(eng): Audio: adpcm_ima_qt, 44100 Hz, 1 channels, s16
creation_time	: 2003-05-03 23:13:43
screenshots
Color Climax John Holmes torrent screenshot 0E1236FB73BCFAE422FF6F912ADCD2083A15A66E Color Climax John Holmes  torrent screenshot 0e1236fb73bcfae422ff6f912adcd2083a15a66e torrent Color Climax John Holmes
Color Climax - John Holmes Movie Collection images are auto generated please report any inapropriate images
 

related search cloud

 john  holmes  cock  biggest  johnny  fill  king  dong  arseholes  stuffed