Torrent Search | Torrent Meta Search | Widgets

Don't Fuck My Sister Kayden kross

223.78 Mb
found 1 year ago
▲ seeders: 23 ▼ leechers:1
your vote:
real:
fake:
Direct Download
THANK YOU
download torrent
  Direct Downloadsponsored

Don't Fuck My Sister Kayden kross torrent

Information about the torrent Don't Fuck My Sister Kayden kross. Seeders, leechers and torrent status is updated everyday.

If you want to download the adult torrent Don't Fuck My Sister Kayden kross you will need a torrent client.

Torrent Metasearch.

tracker
seeders
leechers
↓ torrent client compatible list

↑ hide torrent client compatible list

Help torrentproject.com to stay alive .
Add links of torrentproject.com in your favorite forum, blog, youtube, facebook, twitter etc.
reviews
140
torrent contents

Don't Fuck My Sister - Kayden kross.mp4 torrent

Don't Fuck My Sister - Kayden kross.mp4223.78 Mb torrent search

Sample info:
Duration: 00:12:45.73, start: 0.000000, bitrate: 2451 kb/s
Stream #0:0	: Video: mpeg4 (Simple Profile) (mp4v / 0x7634706D), yuv420p, 720x404 [SAR 1:1 DAR 180:101], 2328 kb/s, 29.97 fps, 29.97 tbr, 30k tbn, 30k tbc
creation_time	: 2013-04-25 17:00:43
handler_name	: VideoHandler
Stream #0:1	: Audio: aac (mp4a / 0x6134706D), 44100 Hz, stereo, s16, 118 kb/s
creation_time	: 2013-04-25 17:00:43
handler_name	: SoundHandler
screenshots
Don't Fuck My Sister torrent screenshot 0EC785EC7CC2602BA89FF47D1E07DB9DA0EA64EB Don't Fuck My Sister  torrent screenshot 0ec785ec7cc2602ba89ff47d1e07db9da0ea64eb torrent Don't Fuck My Sister
Don't Fuck My Sister - Kayden kross.mp4 images are auto generated please report any inapropriate images
 

related search cloud

 kayden  sister  fuck