Torrent Search | Torrent Meta Search | Widgets

Dexter S06E09 HDTV NL Subs DutchReleaseTeam

       
549.09 Mb
found 2 years ago
▲ seeders: 2 ▼ leechers:0
your vote:
real:
fake:
Direct Download
THANK YOU
download torrent
  Direct Downloadsponsored

Dexter S06E09 HDTV NL Subs DutchReleaseTeam torrent

Information about the torrent Dexter S06E09 HDTV NL Subs DutchReleaseTeam. Seeders, leechers and torrent status is updated several times per day.

If you want to download the tv torrent Dexter S06E09 HDTV NL Subs DutchReleaseTeam you will need a torrent client.

Torrent Metasearch.

Torrent verified by kat.ph.

tracker
seeders
leechers
↓ torrent client compatible list

↑ hide torrent client compatible list

Help torrentproject.com to stay alive .
Add links of torrentproject.com in your favorite forum, blog, youtube, facebook, twitter etc.
reviews
140
torrent contents

Dexter S06E09 HDTV NL Subs DutchReleaseTeam torrent

Dexter S06E09 HDTV NL Subs DutchReleaseTeam
Dexter.S06E09.HDTV.XviD (NL Subs) DutchReleaseTeam.avi548.99 Mb torrent search
Multimediacafe.png105.06 Kb torrent search
DutchReleaseTeam NFO.txt474 bytes torrent search
Torrent downloaded from Demonoid.me.txt46 bytes torrent search

Sample info:
Duration: 00:50:32.73, start: 0.000000, bitrate: 1518 kb/s
Stream #0.0: Video: mpeg4, yuv420p, 624x352 [PAR 1:1 DAR 39:22], 23.98 tbr, 23.98 tbn, 23.98 tbc
Stream #0.1: Audio: mp3, 48000 Hz, 2 channels, s16, 153 kb/s
screenshots
Dexter S06E09 HDTV NL torrent screenshot 0FBDEA60178DDC0905EAFAC788F87E6FA02C87C3 Dexter S06E09 HDTV NL  torrent screenshot 0fbdea60178ddc0905eafac788f87e6fa02c87c3 torrent Dexter S06E09 HDTV NL
Dexter S06E09 HDTV NL Subs DutchReleaseTeam images are auto generated please report any inapropriate images
 

related search cloud

 dutchreleaseteam  dexter  subs  hdtv  demonoid  downloaded  xvid  multimediacafe  torrent