Torrent Search | Torrent Meta Search | Widgets

Zuza psa0015 ip4 1

       
658.18 Mb
found 3 years ago
▲ seeders: 2 ▼ leechers:1
your vote:
real:
fake:
Direct Download
THANK YOU
download torrent
  Direct Downloadsponsored

Zuza psa0015 ip4 1 torrent

Information about the torrent Zuza psa0015 ip4 1. A torrent file stores metadata that can be used from a BitTorrent client.

If you want to download the video torrent Zuza psa0015 ip4 1 you will need a torrent client.

Torrent Metasearch.

Torrent verified by kat.ph.

tracker
seeders
leechers
↓ torrent client compatible list

↑ hide torrent client compatible list

Help torrentproject.com to stay alive .
Add links of torrentproject.com in your favorite forum, blog, youtube, facebook, twitter etc.
reviews
140
torrent contents

PublicSexAdventures.com - Zuza - psa0015-ip4-1.mp4 torrent

PublicSexAdventures.com - Zuza - psa0015-ip4-1.mp4658.18 Mb torrent search

Sample info:
Duration: 01:04:07.42, start: 0.000000, bitrate: 1435 kb/s
Stream #0.0	: Video: h264, yuv420p, 768x432, 1365 kb/s, 25 fps, 25 tbr, 25 tbn, 50 tbc
creation_time	: 1970-01-01 00:00:00
Stream #0.1	: Audio: aac, 48000 Hz, mono, s16, 63 kb/s
creation_time	: 1970-01-01 00:00:00
screenshots
Zuza psa0015 ip4 1 torrent screenshot 10079BDDE86F9E5069DA1DDB8596E9E099473C03 Zuza psa0015 ip4 1 torrent screenshot 10079bdde86f9e5069da1ddb8596e9e099473c03 torrent Zuza psa0015 ip4 1
PublicSexAdventures.com - Zuza - psa0015-ip4-1.mp4 images are auto generated please report any inapropriate images
 

related search cloud

 zuza  publicsexadventures