Torrent Search | Torrent Meta Search | Widgets

Brasileirinhas Novatas do Porno

1.37 Gb
found 2 years ago
▲ seeders: 44 ▼ leechers:8
your vote:
real:
fake:
Direct Download
THANK YOU
download torrent
  Direct Downloadsponsored

Brasileirinhas Novatas do Porno torrent

Information about the torrent Brasileirinhas Novatas do Porno. Seeders, leechers and torrent status is updated everyday.

If you want to download the video torrent Brasileirinhas Novatas do Porno you will need a torrent client.

Torrent Metasearch.

tracker
seeders
leechers
↓ torrent client compatible list

↑ hide torrent client compatible list

Help torrentproject.com to stay alive .
Add links of torrentproject.com in your favorite forum, blog, youtube, facebook, twitter etc.
reviews
140
torrent contents

Brasileirinhas--Novatas do Porno.avi torrent

Brasileirinhas--Novatas do Porno.avi1.37 Gb torrent search

Sample info:
Duration: 02:34:41.53, start: 0.000000, bitrate: 1264 kb/s
Stream #0.0: Video: mpeg4 (Advanced Simple Profile), yuv420p, 656x368 [PAR 1:1 DAR 41:23], 29.97 tbr, 29.97 tbn, 29.97 tbc
Stream #0.1: Audio: mp3, 48000 Hz, stereo, s16, 128 kb/s
screenshots
Brasileirinhas Novatas do Porno torrent screenshot 11998E39B763C7228A07C3AFF4AF8DACBDF0E5B0 Brasileirinhas Novatas do Porno torrent screenshot 11998e39b763c7228a07c3aff4af8dacbdf0e5b0 torrent Brasileirinhas Novatas do Porno
Brasileirinhas--Novatas do Porno.avi images are auto generated please report any inapropriate images
 

related search cloud

 porno  novatas  brasileirinhas