Torrent Search | Torrent Meta Search | Widgets

ChP Rassledovanie Russkoe porno (2010) 06 25 (2010) XviD SATRip RiperAM

199.39 Mb
found 4 years ago
▲ seeders: 10 ▼ leechers:2
your vote:
real:
fake:
Direct Download
THANK YOU
download torrent
  Direct Downloadsponsored

ChP Rassledovanie Russkoe porno (2010) 06 25 (2010) XviD SATRip RiperAM torrent

Information about the torrent ChP Rassledovanie Russkoe porno (2010) 06 25 (2010) XviD SATRip RiperAM. Seeders, leechers and torrent status is updated everyday.

If you want to download the video torrent ChP Rassledovanie Russkoe porno (2010) 06 25 (2010) XviD SATRip RiperAM you will need a torrent client.

Torrent Metasearch.

tracker
seeders
leechers
↓ torrent client compatible list

↑ hide torrent client compatible list

Help torrentproject.com to stay alive .
Add links of torrentproject.com in your favorite forum, blog, youtube, facebook, twitter etc.
reviews
140
torrent contents

ChP.Rassledovanie.Russkoe.porno.(2010.06.25).2010.XviD.SATRip.RiperAM.avi torrent

ChP.Rassledovanie.Russkoe.porno.(2010.06.25).2010.XviD.SATRip.RiperAM.avi199.39 Mb torrent search

Sample info:
Duration: 00:19:23.00, start: 0.000000, bitrate: 1438 kb/s
Stream #0.0: Video: mpeg4, yuv420p, 640x480 [PAR 1:1 DAR 4:3], 25.00 tb(r)
Stream #0.1: Audio: mp3, 48000 Hz, stereo, 128 kb/s
screenshots
ChP Rassledovanie Russkoe porno torrent screenshot 1328F0E5D24F7C9154E698F83E0083EFC443A713 ChP Rassledovanie Russkoe porno  torrent screenshot 1328f0e5d24f7c9154e698f83e0083efc443a713 torrent ChP Rassledovanie Russkoe porno
ChP.Rassledovanie.Russkoe.porno.(2010.06.25).2010.XviD.SATRip.RiperAM.avi images are auto generated please report any inapropriate images
you may be interested in these torrents seeders leechers size found
CHP Rassledovanie (2014) 02 20 SATRip KZ 9 0 331.53 Mb 5 months ago

CHP.Rassledovanie.2014.02.20.SATRip.KZ.avi


CHP rassledovanie levozaschitniki (2014) 06 29 SATRip Riper AM 4 0 485.91 Mb 24 days ago

CHP.rassledovanie.levozaschitniki.2014.06.29.SATRip.[www.Riper.AM].avi


Chp Rassledovanie Mars atakuet 20 01 (2012) SATRip 2 0 170.59 Mb 2 years ago

Chp.Rassledovanie.Mars.atakuet.20.01.2012.SATRip.avi


chp rassledovanie rokovoj kruiz tfile ru 1 1 372.9 Mb 2 years ago

chp_rassledovanie_rokovoj_kruiz_[tfile.ru].avi


CHP Rassledovanie 24 06 (2013) DivX SATRip Alexey724 1 0 245.54 Mb 1 year ago

CHP.Rassledovanie.(24.06.2013).DivX.SATRip.Alexey724.avi


CHP Rassledovanie 26 01 (2013) SATRip 1 0 240.22 Mb 1 year ago

CHP.Rassledovanie.26.01.2013.SATRip.avi


CHP Rassledovanie 06 03 (2013) SATRip 1 0 510.96 Mb 1 year ago

CHP.Rassledovanie.06.03.2013.SATRip.avi


ChP Rassledovanie Bankovskie voiny (2011) DivX SATRip RiperAM 1 0 172.83 Mb 2 years ago

ChP.Rassledovanie.Bankovskie.voiny.2011.DivX.SATRip.RiperAM.avi


CHP Rassledovanie Nasledniki Bandery (2014) 02 20 SATRip 1 0 281.4 Mb 4 months ago

CHP.Rassledovanie.Nasledniki.Bandery.2014.02.20.SATRip.avi


 

related search cloud

 satrip  riperam  xvid  porno  rukoe  raledovanie