Torrent Search | Torrent Meta Search | Widgets

Prometheus 3D SBS BluRay 1080px AC3 5 1 DTS Castellano V O+Subs (2012)

9.85 Gb
found 2 years ago
▲ seeders: 33 ▼ leechers:9
your vote:
real:
fake:
Direct Download
THANK YOU
download torrent
  Direct Downloadsponsored

Prometheus 3D SBS BluRay 1080px AC3 5 1 DTS Castellano V O+Subs (2012) torrent

Information about the torrent Prometheus 3D SBS BluRay 1080px AC3 5 1 DTS Castellano V O+Subs (2012). Seeders, leechers and torrent status is updated several times per day.

If you want to download the hdrip torrent Prometheus 3D SBS BluRay 1080px AC3 5 1 DTS Castellano V O+Subs (2012) you will need a torrent client.

Torrent Metasearch.

tracker
seeders
leechers
↓ torrent client compatible list

↑ hide torrent client compatible list

Help torrentproject.com to stay alive .
Add links of torrentproject.com in your favorite forum, blog, youtube, facebook, twitter etc.
reviews
140
torrent contents

Prometheus 3D SBS [BluRay 1080px][AC3 5.1-DTS Castellano-V.O+Subs][2012] torrent

Prometheus 3D SBS [BluRay 1080px][AC3 5.1-DTS Castellano-V.O+Subs][2012]
Prometheus3d1080px.part01.rar900 Mb torrent search
Prometheus3d1080px.part02.rar900 Mb torrent search
Prometheus3d1080px.part03.rar900 Mb torrent search
Prometheus3d1080px.part04.rar900 Mb torrent search
Prometheus3d1080px.part05.rar900 Mb torrent search
Prometheus3d1080px.part06.rar900 Mb torrent search
Prometheus3d1080px.part07.rar900 Mb torrent search
Prometheus3d1080px.part08.rar900 Mb torrent search
Prometheus3d1080px.part09.rar900 Mb torrent search
Prometheus3d1080px.part10.rar900 Mb torrent search
Prometheus3d1080px.part11.rar900 Mb torrent search
Prometheus3d1080px.part12.rar183.98 Mb torrent search

Sample info:
Duration: 02:32:13.27, start: 0.000000, bitrate: 1984 kb/s
Stream #0.0(spa): Video: h264 (High), yuv420p, 1920x1080, PAR 1:1 DAR 16:9, 23.98 fps, 23.98 tbr, 1k tbn, 47.95 tbc (default)
Stream #0.1(spa): Audio: ac3, 48000 Hz, 5.1, s16, 448 kb/s (default) (forced)
title	: Castellano Descargaya.es
Stream #0.2(eng): Audio: dca (DTS), 48000 Hz, 5.1, s16, 1536 kb/s
Stream #0.3(spa): Subtitle: dvdsub (default) (forced)
title	: Forzados
Stream #0.4(spa): Subtitle: dvdsub
title	: Completos
Stream #0.5(spa): Subtitle: [0][0][0][0] / 0x0000
title	: Forzados
Stream #0.6(spa): Subtitle: [0][0][0][0] / 0x0000
title	: Completos
Stream #0.7(eng): Subtitle: [0][0][0][0] / 0x0000
screenshots
Prometheus 3D SBS BluRay torrent screenshot 13810F5E21E51E82EE96162E81349B22FE5A24E6 Prometheus 3D SBS BluRay  torrent screenshot 13810f5e21e51e82ee96162e81349b22fe5a24e6 torrent Prometheus 3D SBS BluRay
Prometheus 3D SBS [BluRay 1080px][AC3 5.1-DTS Castellano-V.O+Subs][2012] images are auto generated please report any inapropriate images
 

related search cloud

 prometheus  part  subs  castellano  bluray