Torrent Search | Torrent Meta Search | Widgets

Hitomi Tanaka Busty Young Neighbor Wants Me (2011) Censored

1.64 Gb
found 12 months ago
▲ seeders: 5 ▼ leechers:3
your vote:
real:
fake:
Direct Download
THANK YOU
download torrent
  Direct Downloadsponsored

Hitomi Tanaka Busty Young Neighbor Wants Me (2011) Censored torrent

Information about the torrent Hitomi Tanaka Busty Young Neighbor Wants Me (2011) Censored. Seeders, leechers and torrent status is updated everyday.

If you want to download the video torrent Hitomi Tanaka Busty Young Neighbor Wants Me (2011) Censored you will need a torrent client.

Torrent Metasearch.

tracker
seeders
leechers
↓ torrent client compatible list

↑ hide torrent client compatible list

Help torrentproject.com to stay alive .
Add links of torrentproject.com in your favorite forum, blog, youtube, facebook, twitter etc.
reviews
140
torrent contents

Hitomi Tanaka - Busty Young Neighbor Wants Me 2011 Censored torrent

Hitomi Tanaka - Busty Young Neighbor Wants Me 2011 Censored
18319 Hitomi Tanaka - Busty Young Neighbor Wants Me PPPD-157.wmv1.64 Gb torrent search

Sample info:
Duration: 02:50:29.77, start: 0.000000, bitrate: 1378 kb/s
Stream #0:0(eng): Audio: wmav2 (a[1][0][0] / 0x0161), 48000 Hz, stereo, s16, 64 kb/s
Stream #0:1(eng): Video: wmv3 (Main) (WMV3 / 0x33564D57), yuv420p, 720x416, 1331 kb/s, 29.97 tbr, 1k tbn, 1k tbc
screenshots
Hitomi Tanaka Busty Young torrent screenshot 13E2C3B9CF56A2BEFE65316FDB86F99D99304136 Hitomi Tanaka Busty Young  torrent screenshot 13e2c3b9cf56a2befe65316fdb86f99d99304136 torrent Hitomi Tanaka Busty Young
Hitomi Tanaka - Busty Young Neighbor Wants Me 2011 Censored images are auto generated please report any inapropriate images
 

related search cloud

 neighbor  wants  hitomi  young  busty  tanaka  pppd  censored