Torrent Search | Torrent Meta Search | Widgets

1995 Bustin' Out My Best Anal

1.93 Gb
found 1 year ago
▲ seeders: 6 ▼ leechers:1
your vote:
real:
fake:
Direct Download
THANK YOU
download torrent
  Direct Downloadsponsored

1995 Bustin' Out My Best Anal torrent

Information about the torrent 1995 Bustin' Out My Best Anal. Seeders, leechers and torrent status is updated several times per day.

If you want to download the anal torrent 1995 Bustin' Out My Best Anal you will need a torrent client.

Torrent Metasearch.

tracker
seeders
leechers
↓ torrent client compatible list

↑ hide torrent client compatible list

Help torrentproject.com to stay alive .
Add links of torrentproject.com in your favorite forum, blog, youtube, facebook, twitter etc.
reviews
140
torrent contents

1995-Bustin' Out My Best Anal torrent

1995-Bustin' Out My Best Anal
Bustin' Out My Best Anal(1995).avi1.93 Gb torrent search
screens.jpg212.18 Kb torrent search
back.jpg96.44 Kb torrent search
front.jpg96.18 Kb torrent search

Sample info:
Duration: 02:44:39.94, start: 0.000000, bitrate: 1677 kb/s
Stream #0.0: Video: mpeg4, yuv420p, 512x384 [PAR 1:1 DAR 4:3], 29.97 fps, 29.97 tbr, 29.97 tbn, 30k tbc
Stream #0.1: Audio: mp3, 48000 Hz, stereo, s16, 119 kb/s
screenshots
1995 Bustin' Out My torrent screenshot 14DF993965B4AD57057A6361968E0C2BAA12BAC9 1995 Bustin' Out My  torrent screenshot 14df993965b4ad57057a6361968e0c2baa12bac9 torrent 1995 Bustin' Out My
1995-Bustin' Out My Best Anal images are auto generated please report any inapropriate images
 

related search cloud

 bustin  anal  best  front  screens  back