Torrent Search | Torrent Meta Search | Widgets

Bestiality Cum Marathon

6.47 Gb
found 2 years ago
▲ seeders: 19 ▼ leechers:18
your vote:
real:
fake:
Direct Download
THANK YOU
download torrent
  Direct Downloadsponsored

Bestiality Cum Marathon torrent

Information about the torrent Bestiality Cum Marathon. A torrent file stores metadata that can be used from a BitTorrent client.

If you want to download the adult torrent Bestiality Cum Marathon you will need a torrent client.

Torrent Metasearch.

tracker
seeders
leechers
↓ torrent client compatible list

↑ hide torrent client compatible list

Help torrentproject.com to stay alive .
Add links of torrentproject.com in your favorite forum, blog, youtube, facebook, twitter etc.
reviews
140
torrent contents

Bestiality Cum Marathon torrent

Bestiality Cum Marathon
Cum Marathon Part 9.avi939.04 Mb torrent search
Cum Marathon Part 4.divx783.51 Mb torrent search
Cum Marathon Part 5.divx775.14 Mb torrent search
Cum Marathon Part 6.avi748.33 Mb torrent search
Cum Marathon Part 7.divx691.3 Mb torrent search
Cum Marathon Part 2.divx687.01 Mb torrent search
Cum Marathon Part 3.divx683.74 Mb torrent search
Cum Marathon Part 1.divx664.91 Mb torrent search
Cum Marathon Part 8.divx652.71 Mb torrent search

Sample info:
Duration: 01:20:02.96, start: 0.000000, bitrate: 1640 kb/s
Stream #0.0: Video: mpeg4, yuv420p, 640x480 [PAR 1:1 DAR 4:3], 30 fps, 30 tbr, 30 tbn, 30k tbc
title	: Video 
Stream #0.1: Audio: mp3, 48000 Hz, stereo, s16, 128 kb/s
title	: Audio 
screenshots
Bestiality Cum Marathon torrent screenshot 15085C75C13E2734526D00F8C63CEBBFAB399A90 Bestiality Cum Marathon torrent screenshot 15085c75c13e2734526d00f8c63cebbfab399a90 torrent Bestiality Cum Marathon
Bestiality Cum Marathon images are auto generated please report any inapropriate images
 

related search cloud

 marathon  part  bestiality