Torrent Search | Torrent Meta Search | Widgets

Teenfuns Jessica The Schoolgirl

248.56 Mb
found 4 years ago
▲ seeders: 2 ▼ leechers:0
your vote:
real:
fake:
Direct Download
THANK YOU
download torrent
  Direct Downloadsponsored

Teenfuns Jessica The Schoolgirl torrent

Information about the torrent Teenfuns Jessica The Schoolgirl. Seeders, leechers and torrent status is updated several times per day.

If you want to download the video torrent Teenfuns Jessica The Schoolgirl you will need a torrent client.

Torrent Metasearch.

tracker
seeders
leechers
↓ torrent client compatible list

↑ hide torrent client compatible list

Help torrentproject.com to stay alive .
Add links of torrentproject.com in your favorite forum, blog, youtube, facebook, twitter etc.
reviews
140
torrent contents

Teenfuns - Jessica (The Schoolgirl).avi torrent

Teenfuns - Jessica (The Schoolgirl).avi248.56 Mb torrent search

Sample info:
Duration: 00:35:29.00, start: 0.000000, bitrate: 979 kb/s
Stream #0.0: Video: mpeg4, yuv420p, 360x288 [PAR 1:1 DAR 5:4], 25 fps, 25 tbr, 25 tbn, 30k tbc
Stream #0.1: Audio: mp3, 16000 Hz, 2 channels, s16, 56 kb/s
screenshots
Teenfuns Jessica The Schoolgirl torrent screenshot 1651A9009224B1CDF6EEFFBA9A050F7A64D15774 Teenfuns Jessica The Schoolgirl torrent screenshot 1651a9009224b1cdf6eeffba9a050f7a64d15774 torrent Teenfuns Jessica The Schoolgirl
Teenfuns - Jessica (The Schoolgirl).avi images are auto generated please report any inapropriate images
 

related search cloud

 schoolgirl  jeica  teenfuns