Torrent Search | Torrent Meta Search | Widgets

I Proti Mou Fora Apo Piso Sirina flv

407.25 Mb
found 3 years ago
▲ seeders: 8 ▼ leechers:0
your vote:
real:
fake:
Direct Download
THANK YOU
download torrent
  Direct Downloadsponsored

I Proti Mou Fora Apo Piso Sirina flv torrent

Information about the torrent I Proti Mou Fora Apo Piso Sirina flv. Seeders, leechers and torrent status is updated several times per day.

If you want to download the video torrent I Proti Mou Fora Apo Piso Sirina flv you will need a torrent client.

Torrent Metasearch.

tracker
seeders
leechers
↓ torrent client compatible list

↑ hide torrent client compatible list

Help torrentproject.com to stay alive .
Add links of torrentproject.com in your favorite forum, blog, youtube, facebook, twitter etc.
reviews
140
torrent contents

I Proti Mou Fora Apo Piso - Sirina.flv torrent

I Proti Mou Fora Apo Piso - Sirina.flv407.25 Mb torrent search

Sample info:
Duration: 01:52:33.08, start: 0.080000, bitrate: 497 kb/s
Stream #0.0: Video: h264, yuv420p, 640x360 [PAR 1:1 DAR 16:9], 401 kb/s, 25 tbr, 1k tbn, 50 tbc
Stream #0.1: Audio: aac, 44100 Hz, stereo, s16, 96 kb/s
screenshots
I Proti Mou Fora torrent screenshot 16D9785843E53A708887C2A5B998DFDF4237B884 I Proti Mou Fora  torrent screenshot 16d9785843e53a708887c2a5b998dfdf4237b884 torrent I Proti Mou Fora
I Proti Mou Fora Apo Piso - Sirina.flv images are auto generated please report any inapropriate images
 

related search cloud

 sirina  piso  fora  proti