Torrent Search | Torrent Meta Search | Widgets

Natalie Heart And Heather Night Bad School Girls HD 1080p

1.98 Gb
found 8 months ago
▲ seeders: 3 ▼ leechers:1
your vote:
real:
fake:
Direct Download
THANK YOU
download torrent
  Direct Downloadsponsored

Natalie Heart And Heather Night Bad School Girls HD 1080p torrent

Information about the torrent Natalie Heart And Heather Night Bad School Girls HD 1080p. Seeders, leechers and torrent status is updated several times per day.

If you want to download the hdrip torrent Natalie Heart And Heather Night Bad School Girls HD 1080p you will need a torrent client.

Torrent Metasearch.

tracker
seeders
leechers
↓ torrent client compatible list

↑ hide torrent client compatible list

Help torrentproject.com to stay alive .
Add links of torrentproject.com in your favorite forum, blog, youtube, facebook, twitter etc.
reviews
140
torrent contents

Natalie Heart And Heather Night - Bad School Girls HD 1080p torrent

Natalie Heart And Heather Night - Bad School Girls HD 1080p
fhd.13.07.19.natalie.heart.and.heather.night.bad.schoolgirls.wmv1.98 Gb torrent search

Sample info:
Duration: 00:31:22.16, start: 0.000000, bitrate: 9053 kb/s
Stream #0:0: Audio: wmav2 (a[1][0][0] / 0x0161), 44100 Hz, stereo, s16, 128 kb/s
Stream #0:1: Video: wmv3 (Main) (WMV3 / 0x33564D57), yuv420p, 1920x1080, 9000 kb/s, SAR 1:1 DAR 16:9, 23.98 tbr, 1k tbn, 1k tbc
screenshots
Natalie Heart And Heather torrent screenshot 17BAF3DF26AE1EB3D9FEC43A20D7BAB0B9350C6D Natalie Heart And Heather  torrent screenshot 17baf3df26ae1eb3d9fec43a20d7bab0b9350c6d torrent Natalie Heart And Heather
Natalie Heart And Heather Night - Bad School Girls HD 1080p images are auto generated please report any inapropriate images
 

related search cloud

 natalie  heather  night  heart  schoolgirls  school  girls

Torrent Anonymous Download