Torrent Search | Torrent Meta Search | Widgets

Playboy Playmate Video Calendar 1990 1991 DVD 9

7.06 Gb
found 3 years ago
▲ seeders: 1 ▼ leechers:1
your vote:
real:
fake:
Direct Download
THANK YOU
download torrent
  Direct Downloadsponsored

Playboy Playmate Video Calendar 1990 1991 DVD 9 torrent

Information about the torrent Playboy Playmate Video Calendar 1990 1991 DVD 9. Seeders, leechers and torrent status is updated several times per day.

If you want to download the dvd torrent Playboy Playmate Video Calendar 1990 1991 DVD 9 you will need a torrent client.

Torrent Metasearch.

tracker
seeders
leechers
↓ torrent client compatible list

↑ hide torrent client compatible list

Help torrentproject.com to stay alive .
Add links of torrentproject.com in your favorite forum, blog, youtube, facebook, twitter etc.
reviews
140
torrent contents

Playboy.Playmate.Video.Calendar.1990-1991.DVD-9 torrent

Playboy.Playmate.Video.Calendar.1990-1991.DVD-9
VTS_06_1.VOB1023.83 Mb torrent search
VTS_06_2.VOB1023.83 Mb torrent search
VTS_05_3.VOB1023.83 Mb torrent search
VTS_05_2.VOB1023.83 Mb torrent search
VTS_05_1.VOB1023.83 Mb torrent search
VTS_06_3.VOB989.64 Mb torrent search
VTS_05_4.VOB931.54 Mb torrent search
VTS_01_0.VOB174.95 Mb torrent search
VTS_08_1.VOB4.61 Mb torrent search
VTS_07_1.VOB4.61 Mb torrent search
VTS_04_1.VOB1.77 Mb torrent search
VIDEO_TS.VOB114 Kb torrent search
VTS_03_0.VOB114 Kb torrent search
VTS_07_0.VOB114 Kb torrent search
VTS_08_0.VOB114 Kb torrent search
VTS_06_0.VOB114 Kb torrent search
VTS_02_0.VOB114 Kb torrent search
VTS_04_0.VOB114 Kb torrent search
VTS_05_0.VOB114 Kb torrent search
VTS_05_0.BUP56 Kb torrent search
VTS_05_0.IFO56 Kb torrent search
VTS_06_0.IFO50 Kb torrent search
VTS_06_0.BUP50 Kb torrent search
VTS_02_1.VOB42 Kb torrent search
VTS_01_0.IFO42 Kb torrent search
VTS_01_0.BUP42 Kb torrent search
VTS_03_1.VOB42 Kb torrent search
VTS_01_1.VOB40 Kb torrent search
VIDEO_TS.BUP26 Kb torrent search
VIDEO_TS.IFO26 Kb torrent search
VTS_03_0.IFO18 Kb torrent search
VTS_02_0.BUP18 Kb torrent search
VTS_07_0.BUP18 Kb torrent search
VTS_07_0.IFO18 Kb torrent search
VTS_03_0.BUP18 Kb torrent search
VTS_04_0.BUP18 Kb torrent search
VTS_08_0.BUP18 Kb torrent search
VTS_08_0.IFO18 Kb torrent search
VTS_04_0.IFO18 Kb torrent search
VTS_02_0.IFO18 Kb torrent search

Sample info:
Duration: 00:18:51.69, start: 1140.873567, bitrate: 7589 kb/s
Stream #0.0[0x1e0]: Video: mpeg2video, yuv420p, 720x480 [PAR 8:9 DAR 4:3], 8000 kb/s, 32.11 fps, 29.97 tbr, 90k tbn, 59.94 tbc
Stream #0.1[0x80]: Audio: ac3, 48000 Hz, stereo, s16, 192 kb/s
screenshots
Playboy Playmate Video Calendar torrent screenshot 17D334D099927B82F31E7E981E3DE4D7FBF7FAC5 Playboy Playmate Video Calendar  torrent screenshot 17d334d099927b82f31e7e981e3de4d7fbf7fac5 torrent Playboy Playmate Video Calendar
Playboy.Playmate.Video.Calendar.1990-1991.DVD-9 images are auto generated please report any inapropriate images
 

related search cloud

 video  calendar  playmate  playboy