Torrent Search | Torrent Meta Search | Widgets

Doctors In Training USMLE Step 1 Course 2011

       
14.61 Gb
found 2 years ago
▲ seeders: 9 ▼ leechers:6
your vote:
real:
fake:
Direct Download
THANK YOU
download torrent
  Direct Downloadsponsored

Doctors In Training USMLE Step 1 Course 2011 torrent

Information about the torrent Doctors In Training USMLE Step 1 Course 2011. Seeders, leechers and torrent status is updated everyday.

If you want to download the video torrent Doctors In Training USMLE Step 1 Course 2011 you will need a torrent client.

Torrent Metasearch.

Torrent verified by kat.ph.

tracker
seeders
leechers
↓ torrent client compatible list

↑ hide torrent client compatible list

Help torrentproject.com to stay alive .
Add links of torrentproject.com in your favorite forum, blog, youtube, facebook, twitter etc.
reviews
140
torrent contents

Doctors In Training USMLE Step 1 Course 2011 torrent

Doctors In Training USMLE Step 1 Course 2011
 DIT-Day1-5
DIT-Day2-Lecture1.m4v416.83 Mb torrent search

Doctors In Training USMLE Step 1 Course 2011
 DIT-Day6-10
DIT-Day10-Lecture1.m4v399.35 Mb torrent search

Doctors In Training USMLE Step 1 Course 2011
 DIT-Day11-15
DIT-Day15-Lecture3-1.m4v375.58 Mb torrent search
DIT-Day15-Lecture2.m4v375.09 Mb torrent search
DIT-Day12-Lecture2.m4v373.76 Mb torrent search

Doctors In Training USMLE Step 1 Course 2011
 DIT-Day6-10
DIT-Day9-Lecture1.m4v372.97 Mb torrent search
DIT-Day8-Lecture1.m4v369.95 Mb torrent search
DIT-Day6-Lecture3.m4v364.82 Mb torrent search

Doctors In Training USMLE Step 1 Course 2011
 DIT-Day1-5
DIT-Day3-Lecture1.m4v360.51 Mb torrent search

Doctors In Training USMLE Step 1 Course 2011
 DIT-Day11-15
DIT-Day14-Lecture2.m4v350.17 Mb torrent search

Doctors In Training USMLE Step 1 Course 2011
 DIT-Day6-10
DIT-Day10-Lecture2.m4v349.95 Mb torrent search

Doctors In Training USMLE Step 1 Course 2011
 DIT-Day11-15
DIT-Day11-Lecture3.m4v349.41 Mb torrent search
DIT-Day12-Lecture1.m4v348.52 Mb torrent search
DIT-Day11-Lecture2.m4v348.18 Mb torrent search
DIT-Day14-Lecture3.m4v347.92 Mb torrent search

Doctors In Training USMLE Step 1 Course 2011
 DIT-Day1-5
DIT-Day1-Lecture2.m4v346.34 Mb torrent search

Doctors In Training USMLE Step 1 Course 2011
 DIT-Day11-15
DIT-Day13-Lecture3.m4v345.7 Mb torrent search

Doctors In Training USMLE Step 1 Course 2011
 DIT-Day1-5
DIT-Day1-Lecture1.m4v345.61 Mb torrent search

Doctors In Training USMLE Step 1 Course 2011
 DIT-Day11-15
DIT-Day13-Lecture2.m4v343.31 Mb torrent search
Doctors In Training USMLE Step 1 Course

Sample info:
Duration: 01:41:15.31, start: 0.000000, bitrate: 575 kb/s
Stream #0.0	: Video: h264 (Main), yuv420p, 638x342 [PAR 1:1 DAR 319:171], 456 kb/s, 29.97 fps, 29.97 tbr, 90k tbn, 180k tbc
creation_time	: 2011-11-30 02:01:41
Stream #0.1	: Audio: aac, 44100 Hz, stereo, s16, 113 kb/s
creation_time	: 2011-11-30 02:01:41
screenshots
Doctors In Training USMLE torrent screenshot 19220A85ED37712CEFE775A0635B72FCB39BA02D Doctors In Training USMLE  torrent screenshot 19220a85ed37712cefe775a0635b72fcb39ba02d torrent Doctors In Training USMLE
Doctors In Training USMLE Step 1 Course 2011 images are auto generated please report any inapropriate images
 

related search cloud

 lecture  course  step  usmle  training  doctors