Torrent Search | Torrent Meta Search | Widgets

Mallu XXX

150.01 Mb
found 1 year ago
▲ seeders: 17 ▼ leechers:2
your vote:
real:
fake:
Direct Download
THANK YOU
download torrent
  Direct Downloadsponsored

Mallu XXX torrent

Information about the torrent Mallu XXX. Seeders, leechers and torrent status is updated several times per day.

If you want to download the adult torrent Mallu XXX you will need a torrent client.

Torrent Metasearch.

tracker
seeders
leechers
↓ torrent client compatible list

↑ hide torrent client compatible list

Help torrentproject.com to stay alive .
Add links of torrentproject.com in your favorite forum, blog, youtube, facebook, twitter etc.
reviews
140
torrent contents

Mallu XXX.avi torrent

Mallu XXX.avi150.01 Mb torrent search

Sample info:
Duration: 00:25:51.54, start: 0.000000, bitrate: 811 kb/s
Stream #0.0: Video: mpeg4 (Simple Profile), yuv420p, 400x280 [PAR 1:1 DAR 10:7], 25 fps, 25 tbr, 25 tbn, 25 tbc
Stream #0.1: Audio: mp3, 44100 Hz, stereo, s16, 128 kb/s
screenshots
Mallu XXX torrent screenshot 1A82DF986C121D7573485198D1442DE3F0C4AD7A Mallu XXX torrent screenshot 1a82df986c121d7573485198d1442de3f0c4ad7a torrent Mallu XXX
Mallu XXX.avi images are auto generated please report any inapropriate images
you may be interested in these torrents seeders leechers size found
Vintage South Indian Mallu XXX 3 3 191.11 Mb 1 year ago

Vintage South Indian Mallu XXX.avi


Indian Porn Sex Clip Hottest South Indian Mallu XXX Nude Video 1 1 3.44 Mb 8 months ago

Indian_Porn_Sex_Clip-Hottest South Indian Mallu XXX Nude Video.mp4 0f


Indian Desi Devika Vintage Mallu xxx Pron Movie 0 1 251.51 Mb 2 years ago

Indian Desi Devika-Vintage Mallu xxx Pron Movie.avi


 

related search cloud

 mallu