Torrent Search | Torrent Meta Search | Widgets

厲陰宅

1.24 Gb
found 8 months ago
▲ seeders: 1 ▼ leechers:1
your vote:
real:
fake:
Direct Download
THANK YOU
download torrent
  Direct Downloadsponsored

厲陰宅 torrent

Information about the torrent 厲陰宅. Seeders, leechers and torrent status is updated several times per day.

If you want to download the video torrent 厲陰宅 you will need a torrent client.

Torrent Metasearch.

tracker
seeders
leechers
↓ torrent client compatible list

↑ hide torrent client compatible list

Help torrentproject.com to stay alive .
Add links of torrentproject.com in your favorite forum, blog, youtube, facebook, twitter etc.
reviews
140
torrent contents

厲陰宅 torrent

厲陰宅
The.Conjuring.2013.WEB-DL.X264.AC3.mkv1.24 Gb torrent search
FDZVET2YMXHPG_by_FDZone.ORG.txt torrent search

Sample info:
Duration: 01:47:19.64, start: 0.000000, bitrate: 1649 kb/s
Stream #0:0(eng): Video: h264 (High), yuv420p, 784x318 [SAR 1:1 DAR 392:159], 25 fps, 25 tbr, 1k tbn, 50 tbc (default)
Stream #0:1: Audio: ac3, 44100 Hz, stereo, s16, 448 kb/s (default)
screenshots
厲陰宅 torrent screenshot 1AB00B6CF9C3AAB319BA7D2B8BD60D30E42019C4 厲陰宅 torrent screenshot 1ab00b6cf9c3aab319ba7d2b8bd60d30e42019c4 torrent 厲陰宅
厲陰宅 images are auto generated please report any inapropriate images
 

related search cloud

 fdzone  ymxhpg  fdzvet  conjuring

Torrent Anonymous Download