Torrent Search | Torrent Meta Search | Widgets

Max Hardcore Vs Yumi & Layla

       
308.2 Mb
found 4 years ago
▲ seeders: 1 ▼ leechers:2
your vote:
real:
fake:
Direct Download
THANK YOU
download torrent
  Direct Downloadsponsored

Max Hardcore Vs Yumi & Layla torrent

Information about the torrent Max Hardcore Vs Yumi & Layla. Seeders, leechers and torrent status is updated several times per day.

If you want to download the adult torrent Max Hardcore Vs Yumi & Layla you will need a torrent client.

Torrent Metasearch.

Torrent verified by kat.ph.

tracker
seeders
leechers
↓ torrent client compatible list

↑ hide torrent client compatible list

Help torrentproject.com to stay alive .
Add links of torrentproject.com in your favorite forum, blog, youtube, facebook, twitter etc.
reviews
140
torrent contents

Max Hardcore Vs Yumi & Layla_www.linkindexxx.com torrent

Max Hardcore Vs Yumi & Layla_www.linkindexxx.com
1727 - Yumi and Layla.avi.jpg224.79 Kb torrent search
1727 - Yumi and Layla_www.linkindexxx.com.avi277.43 Mb torrent search
Facial Abuse Discount and Info.txt377 bytes torrent search
www.ghettogaggers.com-monet devine.wmv30.34 Mb torrent search
www.ghettogaggers.com-monet devine.wmv.jpg211.81 Kb torrent search

Sample info:
Duration: 00:33:44.33, start: 0.000000, bitrate: 1149 kb/s
Stream #0.0: Video: mpeg4, yuv420p, 320x240 [PAR 1:1 DAR 4:3], 29.97 tbr, 29.97 tbn, 29.97 tbc
Stream #0.1: Audio: mp3, 44100 Hz, 1 channels, s16, 114 kb/s
screenshots
Max Hardcore Vs Yumi torrent screenshot 1AD9869A50AEEE0341BC3D9C96ECDAE1526BEF43 Max Hardcore Vs Yumi  torrent screenshot 1ad9869a50aeee0341bc3d9c96ecdae1526bef43 torrent Max Hardcore Vs Yumi
Max Hardcore Vs Yumi & Layla_www.linkindexxx.com images are auto generated please report any inapropriate images
 

related search cloud

 layla  yumi  ghettogaggers  monet  linkindexxx  devine  info  abuse  facial  hardcore