Torrent Search | Torrent Meta Search | Widgets

Teenfuns Mylola

280.12 Mb
found 3 years ago
▲ seeders: 4 ▼ leechers:2
your vote:
real:
fake:
Direct Download
THANK YOU
download torrent
  Direct Downloadsponsored

Teenfuns Mylola torrent

Information about the torrent Teenfuns Mylola. A torrent file stores metadata that can be used from a BitTorrent client.

If you want to download the video torrent Teenfuns Mylola you will need a torrent client.

Torrent Metasearch.

tracker
seeders
leechers
↓ torrent client compatible list

↑ hide torrent client compatible list

Help torrentproject.com to stay alive .
Add links of torrentproject.com in your favorite forum, blog, youtube, facebook, twitter etc.
reviews
140
torrent contents

Teenfuns - Mylola.mpg torrent

Teenfuns - Mylola.mpg280.12 Mb torrent search

Sample info:
Duration: 00:14:50.88, start: 0.180000, bitrate: 2637 kb/s
Stream #0.0[0x1e0]: Video: mpeg2video, yuv420p, 576x480 [PAR 10:9 DAR 4:3], 2376 kb/s, 25.00 tb(r)
Stream #0.1[0x1c0]: Audio: mp2, 44100 Hz, stereo, 224 kb/s
screenshots
Teenfuns Mylola torrent screenshot 1B09E45F60CF7B7141A415DE1EF42EB0D495373E Teenfuns Mylola torrent screenshot 1b09e45f60cf7b7141a415de1ef42eb0d495373e torrent Teenfuns Mylola
Teenfuns - Mylola.mpg images are auto generated please report any inapropriate images
 

related search cloud

 mylola  teenfuns

Torrent Anonymous Download