Torrent Search | Torrent Meta Search | Widgets

MonsterCurves Cameron Canada Bouncy booty

441.61 Mb
found 11 months ago
▲ seeders: 2 ▼ leechers:3
your vote:
real:
fake:
Direct Download
THANK YOU
download torrent
  Direct Downloadsponsored

MonsterCurves Cameron Canada Bouncy booty torrent

Information about the torrent MonsterCurves Cameron Canada Bouncy booty. Seeders, leechers and torrent status is updated everyday.

If you want to download the video torrent MonsterCurves Cameron Canada Bouncy booty you will need a torrent client.

Torrent Metasearch.

tracker
seeders
leechers
↓ torrent client compatible list

↑ hide torrent client compatible list

Help torrentproject.com to stay alive .
Add links of torrentproject.com in your favorite forum, blog, youtube, facebook, twitter etc.
reviews
140
torrent contents

MonsterCurves - Cameron Canada (Bouncy booty) torrent

MonsterCurves - Cameron Canada (Bouncy booty)
MonsterCurves - Cameron Canada (Bouncy booty) NEW September 07, 2013.mp4441.61 Mb torrent search

Sample info:
Duration: 00:40:06.33, start: 0.000000, bitrate: 1539 kb/s
Stream #0:0	: Video: h264 (Main) (avc1 / 0x31637661), yuv420p, 768x432 [SAR 1:1 DAR 16:9], 1503 kb/s, 29.97 fps, 29.97 tbr, 2997 tbn, 59.94 tbc
creation_time	: 2013-09-03 16:37:22
handler_name	: Apple Video Media Handler
Stream #0:1	: Audio: aac (mp4a / 0x6134706D), 32000 Hz, mono, s16, 32 kb/s
creation_time	: 2013-09-03 16:37:22
handler_name	: Apple Sound Media Handler
screenshots
MonsterCurves Cameron Canada Bouncy torrent screenshot 1B4ED7C320DE88BCF55152C9FE3128CC234DF5C0 MonsterCurves Cameron Canada Bouncy  torrent screenshot 1b4ed7c320de88bcf55152c9fe3128cc234df5c0 torrent MonsterCurves Cameron Canada Bouncy
MonsterCurves - Cameron Canada (Bouncy booty) images are auto generated please report any inapropriate images
 

related search cloud

 booty  bouncy  canada  monstercurves  cameron  september