Torrent Search | Torrent Meta Search | Widgets

Color Climax Teenage Bestsellers # 238

       
619.78 Mb
found 3 years ago
▲ seeders: 5 ▼ leechers:1
your vote:
real:
fake:
Direct Download
THANK YOU
download torrent
  Direct Downloadsponsored

Color Climax Teenage Bestsellers # 238 torrent

Information about the torrent Color Climax Teenage Bestsellers # 238. Seeders, leechers and torrent status is updated everyday.

If you want to download the video torrent Color Climax Teenage Bestsellers # 238 you will need a torrent client.

Torrent Metasearch.

Torrent verified by torrentfunk.com.

tracker
seeders
leechers
↓ torrent client compatible list

↑ hide torrent client compatible list

Help torrentproject.com to stay alive .
Add links of torrentproject.com in your favorite forum, blog, youtube, facebook, twitter etc.
reviews
140
torrent contents

Color Climax Teenage Bestsellers # 238.avi torrent

Color Climax Teenage Bestsellers # 238.avi619.78 Mb torrent search

Sample info:
Duration: 00:51:19.60, start: 0.000000, bitrate: 1688 kb/s
Stream #0.0: Video: mpeg4 (Simple Profile), yuv420p, 640x480 [PAR 1:1 DAR 4:3], 25 tbr, 25 tbn, 25 tbc
Stream #0.1: Audio: mp3, 44100 Hz, stereo, s16, 128 kb/s
screenshots
Color Climax Teenage Bestsellers torrent screenshot 1B6691EC613816D972C8960B1DF89D02DFF90ADD Color Climax Teenage Bestsellers  torrent screenshot 1b6691ec613816d972c8960b1df89d02dff90add torrent Color Climax Teenage Bestsellers
Color Climax Teenage Bestsellers # 238.avi images are auto generated please report any inapropriate images
 

related search cloud

 bestsellers  teenage  climax  color