Torrent Search | Torrent Meta Search | Widgets

LEGAL HIGH Ep09 Chi Jap HDTVrip 1024X576 YYeTs人人影视 mkv

548.54 Mb
found 2 years ago
▲ seeders: 2 ▼ leechers:1
your vote:
real:
fake:
Direct Download
THANK YOU
download torrent
  Direct Downloadsponsored

LEGAL HIGH Ep09 Chi Jap HDTVrip 1024X576 YYeTs人人影视 mkv torrent

Information about the torrent LEGAL HIGH Ep09 Chi Jap HDTVrip 1024X576 YYeTs人人影视 mkv. Seeders, leechers and torrent status is updated several times per day.

If you want to download the video torrent LEGAL HIGH Ep09 Chi Jap HDTVrip 1024X576 YYeTs人人影视 mkv you will need a torrent client.

Torrent Metasearch.

tracker
seeders
leechers
↓ torrent client compatible list

↑ hide torrent client compatible list

Help torrentproject.com to stay alive .
Add links of torrentproject.com in your favorite forum, blog, youtube, facebook, twitter etc.
reviews
140
torrent contents

LEGAL.HIGH.Ep09.Chi_Jap.HDTVrip.1024X576-YYeTs人人影视.mkv torrent

LEGAL.HIGH.Ep09.Chi_Jap.HDTVrip.1024X576-YYeTs人人影视.mkv548.54 Mb torrent search

Sample info:
Duration: 00:46:34.99, start: 0.000000, bitrate: N/A
Stream #0.0: Video: h264 (Main), yuv420p, 1024x576 [PAR 1:1 DAR 16:9], 29.97 fps, 29.97 tbr, 1k tbn, 59.94 tbc (default)
Stream #0.1: Audio: aac, 48000 Hz, stereo, s16 (default)
screenshots
LEGAL HIGH Ep09 Chi torrent screenshot 1C3E7096578667D9EBA7775992CF005978C06470 LEGAL HIGH Ep09 Chi  torrent screenshot 1c3e7096578667d9eba7775992cf005978c06470 torrent LEGAL HIGH Ep09 Chi
LEGAL.HIGH.Ep09.Chi_Jap.HDTVrip.1024X576-YYeTs人人影视.mkv images are auto generated please report any inapropriate images
 

related search cloud

 yyets  hdtvrip  high  legal