Torrent Search | Torrent Meta Search | Widgets

Brasileirinhas A Nova Fernandinha Fernandez

1.37 Gb
found 1 year ago
▲ seeders: 9 ▼ leechers:4
your vote:
real:
fake:
Direct Download
THANK YOU
download torrent
  Direct Downloadsponsored

Brasileirinhas A Nova Fernandinha Fernandez torrent

Information about the torrent Brasileirinhas A Nova Fernandinha Fernandez. Seeders, leechers and torrent status is updated several times per day.

If you want to download the video torrent Brasileirinhas A Nova Fernandinha Fernandez you will need a torrent client.

Torrent Metasearch.

tracker
seeders
leechers
↓ torrent client compatible list

↑ hide torrent client compatible list

Help torrentproject.com to stay alive .
Add links of torrentproject.com in your favorite forum, blog, youtube, facebook, twitter etc.
reviews
140
torrent contents

Brasileirinhas - A Nova Fernandinha Fernandez torrent

Brasileirinhas - A Nova Fernandinha Fernandez
ANovaFernandinhaFernandez.avi1.37 Gb torrent search
ANovaFernandinhaFernandez.jpeg262.22 Kb torrent search

Sample info:
Duration: 02:38:00.10, start: 0.000000, bitrate: 1237 kb/s
Stream #0.0: Video: mpeg4 (Advanced Simple Profile), yuv420p, 624x336 [PAR 1:1 DAR 13:7], 29.97 tbr, 29.97 tbn, 29.97 tbc
Stream #0.1: Audio: mp3, 48000 Hz, stereo, s16, 128 kb/s
screenshots
Brasileirinhas A Nova Fernandinha torrent screenshot 1CF516AB1B585108383C7627DC4E5064A9800026 Brasileirinhas A Nova Fernandinha  torrent screenshot 1cf516ab1b585108383c7627dc4e5064a9800026 torrent Brasileirinhas A Nova Fernandinha
Brasileirinhas - A Nova Fernandinha Fernandez images are auto generated please report any inapropriate images
you may be interested in these torrents seeders leechers size found
Brasileirinhas Novatas do Porno     66 12 1.37 Gb 2 years ago

Brasileirinhas--Novatas do Porno.avi


PornoLab Карнавал (2013) Brazil Brasileirinhas     65 6 927.77 Mb 1 year ago

Carnaval 2013 [Brasileirinhas].avi


Show de Bola Vol 2 Brasileirinhas 41 12 814.14 Mb 13 days ago

Show de Bola 2 cena 1.mp4 Show de Bola 2 cena 2.mp4 S


Show de Bundas Vol 4 Brasileirinhas 36 17 899.15 Mb 6 days ago

Show de Bundas Vol. 4 Brasileirinhas AVI.avi


Brasileirinhas Yumi Saito vs a Nova Fernandinha Fernandez DVDRip 33 5 1.46 Gb 2 years ago

Brasileirinhas - Yumi Saito vs. a Nova Fernandinha Fernandez.DVDRip.avi


Patyficação Brasileirinhas 32 6 562.82 Mb 30 days ago

Patyficação.Cena.1.mp4 Patyficação.Cena.3.mp4 Patyficação.Cena.2.mp4


Brasileirinhas Copa do Sexo 2 32 2 695.24 Mb 1 month ago

CopaDoSexo2_cena1.mp4 CopaDoSexo2_cena2.mp4 CopaDoSexo2_cena4.mp4 0f


Brasileirinhas Por Favor Coma Minha Esposa Nas Férias 31 7 699.73 Mb 2 years ago

Brasileirinhas - Por Favor Coma Minha Esposa Nas Férias.avi


Brasileirinhas A Garota Do Whats Up XviD DVDRip 31 4 764.44 Mb 2 months ago

AGarotaDoWhatsUp_cena1.mp4 AGarotaDoWhatsUp_cena4.mp4 AGarotaDo


Ai Que Dó Brasileirinhas AVI DVDRip 29 9 662.89 Mb 18 days ago

Cena 02.MP4 Cena 01.MP4 Cena 04.MP4 Cena