Torrent Search | Torrent Meta Search | Widgets

naruto shippuden season 10

970.72 Mb
found 2 years ago
▲ seeders: 4 ▼ leechers:2
your vote:
real:
fake:
Direct Download
THANK YOU
download torrent
  Direct Downloadsponsored

naruto shippuden season 10 torrent

Information about the torrent naruto shippuden season 10. Seeders, leechers and torrent status is updated everyday.

If you want to download the video torrent naruto shippuden season 10 you will need a torrent client.

Torrent Metasearch.

tracker
seeders
leechers
↓ torrent client compatible list

↑ hide torrent client compatible list

Help torrentproject.com to stay alive .
Add links of torrentproject.com in your favorite forum, blog, youtube, facebook, twitter etc.
reviews
140
torrent contents

naruto shippuden season 10 torrent

naruto shippuden season 10
Naruto Shippuden Episode 197 English Subbed - Watch at NarutoGet.com_2.mp436.68 Mb torrent search
Naruto Shippuden Episode 198 English Subbed - Watch at NarutoGet.com.mp434.2 Mb torrent search
Naruto Shippuden Episode 199 English Subbed - Watch at NarutoGet.com.mp441.47 Mb torrent search
Naruto Shippuden Episode 200 English Subbed - Watch at NarutoGet.com.mp432.31 Mb torrent search
Naruto Shippuden Episode 201 English Subbed - Watch at NarutoGet.com.mp432.37 Mb torrent search
Naruto Shippuden Episode 202 English Subbed - Watch at NarutoGet.com.mp440.04 Mb torrent search
Naruto Shippuden Episode 203 English Subbed - Watch at NarutoGet.com.mp453.31 Mb torrent search
Naruto Shippuden Episode 204 English Subbed - Watch at NarutoGet.com.mp443.51 Mb torrent search
Naruto Shippuden Episode 205 English Subbed - Watch at NarutoGet.com.mp440.06 Mb torrent search
Naruto Shippuden Episode 206 English Subbed - Watch at NarutoGet.com.mp437.85 Mb torrent search
Naruto Shippuden Episode 207 English Subbed - Watch at NarutoGet.com.mp447.19 Mb torrent search
Naruto Shippuden Episode 208 English Subbed - Watch at NarutoGet.com.mp436.94 Mb torrent search
Naruto Shippuden Episode 209 English Subbed - Watch at NarutoGet.com.mp456.27 Mb torrent search
Naruto Shippuden Episode 210 English Subbed - Watch at NarutoGet.com.mp458.09 Mb torrent search
Naruto Shippuden Episode 211 English Subbed - Watch at NarutoGet.com.mp442.49 Mb torrent search
Naruto Shippuden Episode 212 English Subbed - Watch at NarutoGet.com_2.mp446.47 Mb torrent search

Sample info:
Duration: 00:19:25.08, start: 0.000000, bitrate: 418 kb/s
Stream #0.0	: Video: h264 (High), yuv420p, 640x362 [PAR 188:185 DAR 12032:6697], 316 kb/s, PAR 65:64 DAR 325:181, 23.98 fps, 23.98 tbr, 24k tbn, 47.95 tbc
creation_time	: 1970-01-01 00:00:00
Stream #0.1	: Audio: aac, 44100 Hz, stereo, s16, 95 kb/s
creation_time	: 1970-01-01 00:00:00
screenshots
naruto shippuden season 10 torrent screenshot 1D6243E75C2D12B57C157C3CB434298B1D008DB5 naruto shippuden season 10 torrent screenshot 1d6243e75c2d12b57c157c3cb434298b1d008db5 torrent naruto shippuden season 10
naruto shippuden season 10 images are auto generated please report any inapropriate images
 

related search cloud

 naruto  shippuden  subbed  watch  episode  english  narutoget  season