Torrent Search | Torrent Meta Search | Widgets

STICKAM SuperPack II Girl Girl Doggy Fun Couples

3.28 Gb
found 3 years ago
▲ seeders: 4 ▼ leechers:3
your vote:
real:
fake:
Direct Download
THANK YOU
download torrent
  Direct Downloadsponsored

STICKAM SuperPack II Girl Girl Doggy Fun Couples torrent

Information about the torrent STICKAM SuperPack II Girl Girl Doggy Fun Couples. Seeders, leechers and torrent status is updated everyday.

If you want to download the anal torrent STICKAM SuperPack II Girl Girl Doggy Fun Couples you will need a torrent client.

Torrent Metasearch.

tracker
seeders
leechers
↓ torrent client compatible list

↑ hide torrent client compatible list

Help torrentproject.com to stay alive .
Add links of torrentproject.com in your favorite forum, blog, youtube, facebook, twitter etc.
reviews
anonymous 25 Dec 2013, 06:12:06
loli stimcam pissn
140
torrent contents

STICKAM SuperPack II (Girl-Girl, Doggy Fun, Couples) torrent

STICKAM SuperPack II (Girl-Girl, Doggy Fun, Couples)
 Couples
 CassieZombie
SSCassieZombie.avi81.98 Mb torrent search
20090722%40Stickaps.avi79.48 Mb torrent search
20090722W%40Stickaps.avi45.84 Mb torrent search

STICKAM SuperPack II (Girl-Girl, Doggy Fun, Couples)
 Couples
t-t-twigo.avi51.59 Mb torrent search
lime_green_jade.avi50.15 Mb torrent search
mirandaaaask8x3.avi45.72 Mb torrent search
edamame.avi30.03 Mb torrent search
The Infamous Midget Fuck.avi10.56 Mb torrent search

STICKAM SuperPack II (Girl-Girl, Doggy Fun, Couples)
 Doggy Fun
 cait
cait dognanal.avi15.85 Mb torrent search
cait loves her dog.avi11.31 Mb torrent search
cait dog licking pussy.avi9.1 Mb torrent search
cait doggy lick.avi7.02 Mb torrent search

STICKAM SuperPack II (Girl-Girl, Doggy Fun, Couples)
 Doggy Fun
popsichan.ASF129.75 Mb torrent search
tiyabatedogsex.avi99.1 Mb torrent search
megastone1.avi30.87 Mb torrent search
Esachasa.avi23.22 Mb torrent search
angel.avi19.36 Mb torrent search
torilovesitx3.avi18.19 Mb torrent search
49c29f5f50c41.flv9.81 Mb torrent search
doggonA.wmv3.62 Mb torrent search
mex.avi2.09 Mb torrent search

STICKAM SuperPack II (Girl-Girl, Doggy Fun, Couples)
 Girl-Girl
 babyblueeyes
20090626-2.avi66.21 Mb torrent search
20090626-1.avi11.54 Mb torrent search
20090626-3.avi11.34 Mb torrent search

STICKAM SuperPack II (Girl-Girl, Doggy Fun, Couples)
 Girl-Girl
 catheryn (5 Hours)
catheryn_pt1.avi114.11 Mb torrent search
catheryn_pt4.avi106.32 Mb torrent search
catheryn_pt3.avi97.05 Mb torrent search
catheryn_pt5.avi95.72 Mb torrent search
catheryn_pt2.avi73.67 Mb torrent search

STICKAM SuperPack II (Girl-Girl, Doggy Fun, Couples)
 Girl-Girl
 enjoy_flirt_play
EFP.avi135.38 Mb torrent search

Sample info:
Duration: 01:21:33.16, start: 0.000000, bitrate: 244 kb/s
Stream #0.0: Video: mpeg4, yuv420p, 288x208 [PAR 1:1 DAR 18:13], 30 tbr, 30 tbn, 30.01 tbc
Stream #0.1: Audio: mp3, 44100 Hz, 1 channels, s16, 64 kb/s
screenshots
STICKAM SuperPack II Girl torrent screenshot 1E4164DBA40ABD5519206C612FFD34423ED7C5C4 STICKAM SuperPack II Girl  torrent screenshot 1e4164dba40abd5519206c612ffd34423ed7c5c4 torrent STICKAM SuperPack II Girl
STICKAM SuperPack II (Girl-Girl, Doggy Fun, Couples) images are auto generated please report any inapropriate images
 

related search cloud

 girl  doggy  couples  superpack  stickam  catheryn  cait  caiezombie  stickaps  angel